Ссылка на приватное зеркало всего за 1$. Внимание количество ограничено!!!

iTunes

iTunes

iTunes

1

iTunes

iTunes

iTunes

iTunes

iTunes

30
pack

$ от Little Big

ВАЖНО

!!Акция!!

Alien_RageХит недели

RePack

Resident Evil 21

ИГРА 18+

pack

RePack

jed

!!Акция!!

Alien_Rage

RePack

fifa19

RePack

Assassins Creed: Odyssey

RePack

NEED FOR SPEED™ PAYBACK

4 сезон

9 сезон

Бесстыжие 9 сезон

Все сериалы

все сериалы на PB.wtf

RePack

FAR CRY 5
  

Зачинщики / Masterminds (Джаред Хесс) [2016, боевик, комедия, криминал, WEB-DL 1080p] Дубляж - [Лицензия / iTunes] pb.wtf

Зачинщики через торрент pb.wtf

Размер: 3.53 GB | Добавлен: 3 года 7 мес. назад | Торрент скачан:4482 раза
Скачать  

21-11-2016 19:45 Зачинщики Скачать торрент  

Зачинщики / Masterminds

Год выпуска: 2016
Страна: США
Жанр: боевик, комедия, криминал

Продолжительность: 01:30:44
Перевод: Дубляж - [Лицензия / iTunes]
Режиссер: Джаред Хесс
В ролях:

Зак Галифианакис (David Ghantt), Оуэн Уилсон (Steve), Кристен Уиг (Kelly), Джейсон Судейкис (Mike McKinney), Кейт МакКиннон (Jandice), Лесли Джонс (Detective), Мэри Элизабет Эллис (Michelle), Кен Марино (Doug), Девин Рэтрей (Runny), Джон Дэйли (Detective), Рода Гриффис (Real Estate Agent), Росс Кимбелл (Eric)
Описание:
Бывший клерк банка вместе со своей любовницей проворачивает дерзкое ограбление инкассаторской машины и забирает 17 миллионов баксов. Но по неопытности преступники-дебютанты оставляют на месте преступления столько следов и улик, что вряд ли смогут получить удовольствие от добычи.
Рейтинг:

MPAA: PG-13 - Детям до 13 лет просмотр не желателен
Качество: WEB-DL 1080p
Формат: MKV
Видео: AVC, 1920x1038 (1.85:1), 5073 kbps, 25 fps, 0,102 bpp
Аудио: русский / AC3 / 5.1 / 48 kHz / 384 kbps / |iTunes|
Навигация по главам: есть
Релиз от:
General
Unique ID : 227514327633318147390658033891283117234 (0xAB29AA67293E561BB5594DE9B25124B2)
Complete name : E:\TMasterminds.2016.1080p.WEB-DL.Rus.HDCLUB.mkv
Format : Matroska
Format version : Version 2
File size : 3.53 GiB
Duration : 1 h 30 min
Overall bit rate : 5 568 kb/s
Movie name : Masterminds (2016) - Release for HDCLUB
Encoded date : UTC 2016-11-21 19:12:11
Writing application : mkvmerge v3.4.0 ('Rapunzel') built on May 15 2010 09:38:20
Writing library : libebml v0.8.0 + libmatroska v0.9.0

Video
ID : 1
Format : AVC
Format/Info : Advanced Video Codec
Format profile : High@L4
Format settings, CABAC : Yes
Format settings, ReFrames : 4 frames
Codec ID : V_MPEG4/ISO/AVC
Duration : 1 h 30 min
Bit rate : 5 073 kb/s
Width : 1 920 pixels
Height : 1 038 pixels
Display aspect ratio : 1.85:1
Frame rate mode : Constant
Frame rate : 25.000 FPS
Color space : YUV
Chroma subsampling : 4:2:0
Bit depth : 8 bits
Scan type : Progressive
Bits/(Pixel*Frame) : 0.102
Stream size : 3.22 GiB (91%)
Title : Masterminds (2016) - Release for HDCLUB
Language : English
Default : Yes
Forced : No
Color range : Limited
Color primaries : BT.709
Transfer characteristics : BT.709
Matrix coefficients : BT.709

Audio
ID : 2
Format : AC-3
Format/Info : Audio Coding 3
Mode extension : CM (complete main)
Format settings, Endianness : Big
Codec ID : A_AC3
Duration : 1 h 30 min
Bit rate mode : Constant
Bit rate : 384 kb/s
Channel(s) : 6 channels
Channel positions : Front: L C R, Side: L R, LFE
Sampling rate : 48.0 kHz
Frame rate : 31.250 FPS (1536 spf)
Compression mode : Lossy
Stream size : 249 MiB (7%)
Title : AC3 5.1 @ 384 kbps - DUB, iTunes
Language : Russian
Default : Yes
Forced : No

Menu
00:00:00.000 : en:1
00:06:20.000 : en:2
00:12:27.200 : en:3
00:19:46.960 : en:4
00:26:52.880 : en:5
00:32:31.160 : en:6
00:39:10.680 : en:7
00:45:47.320 : en:8
00:51:07.600 : en:9
00:58:37.560 : en:10
01:04:24.520 : en:11
01:10:03.840 : en:12
01:16:06.160 : en:13
pb.wtf



Скачать Зачинщики через торрент http://i1.imageban.ru/out/2016/11/21/87437fc87880ecfcc883f948790cdc84.jpg Скачать фильм Зачинщики через торрент бесплантно в хорошем качестве Описание: Бывший клерк банка вместе со своей любовницей проворачивает дерзкое ограбление инкассаторской машины и забирает 17 миллионов ... 9.6 10 99
Info! Золотая раздача, скачанное не засчитывается.
Торрент: Зарегистрирован [2016-11-21 19:45] · скачан: 4 482 раз
Статус: √ проверено
Размер: 3.53 GB
Как cкачать? Как скачать Зачинщики через торрент | qTorrent

% Раздел Тема Автор DL S | L
Фильмы с авторской озвучкой [ 1.46 GB ] Зачинщики / Masterminds [2016 BDRip] Авторский [Дмитрий Есарев] Twi7ter Скачать
2 | 0
Фильмы 2016 [DVDrip, WEB-DLRip, HDrip] (DUB, MVO) [ 1.46 GB ] Зачинщики / Masterminds [2016 BDRip] - [] Twi7ter Скачать
2 | 0
Наши новые фильмы 2017 [ 2.51 GB ] Зачинщики / Masterminds [2016 BDRip-AVC] - R.G.Resident schultz Скачать
1 | 0
Фильмы [HD 720p, 1080p] (Хороший звук DUB, MVO) [ 8.19 GB ] Зачинщики / Masterminds [2016 BDRip 1080p] - -Lexx- Скачать
1 | 0
T Релизы по Парсеру [Игры, Сериалы и Фильмы и другое...] [ 746 MB ] Зачинщики / Masterminds [2016 WEB-DLRip] - Sherif Скачать
1 | 0

28-11-2019 20:33  

Отключить всю рекламу на сайте

22-11-2016 07:30 Зачинщики Скачать торрент  

Как фильмец,стоит хоть время терять?pb.wtf



22-11-2016 13:53 Зачинщики Скачать торрент  

хороший фильм, хотя местами юмор не оченьpb.wtf



23-11-2016 19:22 Зачинщики Скачать торрент  

Большое спасибо, качаю!pb.wtf



30-11-2016 15:28 Зачинщики Скачать торрент  

"Детям до 13 лет просмотр нежелателен." Истинная правда, фильм для детей от 13 до 15 лет. Я сначала подумал что это "Охотницы на привидений часть 2", судя по актрисам. И кстати, 1 часть ОЧЕНЬ не понравилась, убожество какое-то.pb.wtf



14-12-2016 19:56 Зачинщики Скачать торрент  

убойный фильм)) Галифианакис в своём репертуаре)pb.wtf



15-12-2016 18:18 Зачинщики Скачать торрент  

норм фильм. посмотрел с удовольствием. спасибоpb.wtf



18-12-2016 08:20 Зачинщики Скачать торрент  

оценка 2 из 5pb.wtf



20-12-2016 13:24 Зачинщики Скачать торрент  

zra писал(а):

Как фильмец,стоит хоть время терять?

Ну, я, примеру, даже дико ржал местами, другими местами - просто смеялся, а другими местами улыбался...
Честно признаться, мне сложно угодить комедиями и, в нынешнее время, очень редко попадается действительно смешная комедия, точнее - их практически не существуют! А эта комедия, пусть и не такая ржачная, какие были в 90-х, но достаточно ржачная, чтобы вспомнить что такое смеяться от души, а не просто ухмыляться.pb.wtf



    Дорогой пользователь! Огромная просьба, поблагодарите релизера, оцените раздачу и оставьте свои комментарий, если Вы скачали Зачинщики через торрент бесплатно! Внесите свою лепту в развитие PiratBit!
    Комментировать посты могут только пользователи прошедшие не сложную регистрацию
    Показать сообщения:    

    Зачинщики через торрент
    Скачать бесплатно Зачинщики
    Зачинщики скачать торрент
    Зачинщики смотреть онлайн
    Cкачать фильм Зачинщики бесплатно
    Зачинщики скачать торрент в хорошем качестве
    Зачинщики смотреть онлайн бесплатно в хорошем качестве


    Вы не можете начинать темы
    Вы не можете отвечать на сообщения
    Вы не можете редактировать свои сообщения
    Вы не можете удалять свои сообщения
    Вы не можете голосовать в опросах
    Вы не можете прикреплять файлы к сообщениям
    Вы можете скачивать файлы