>

7.4

iTunes

7.4

2 сезон

9.4

1 сезон

1

7.4

2 сезон

7.2

iTunes

6.0

MVO

13

6.1

iTunes

8.3

Пиратка

30

ULTIMATE

pack

9.9

Лицензия

ВАЖНО

ИГРА 18+

pack

7.3

RePack

MK11

7.7

RePack

jed

7.8

RePack

fifa19

8.5

RePack

RDR2

RePack

NEED FOR SPEED™ PAYBACK

1 сезон

9 сезон

Бесстыжие 9 сезон

Все сериалы

все сериалы на PB.wtf

RePack

FAR CRY 5

Anonymous, доброе утро, мы катастрофически не успеваем собрать деньги на оплату серверов, помогите нам пожалуйста 5,10,15р., для нас важна любая помощь . В качестве благодарности мы отключим Вам всю рекламу на сайте (укажите свой ник в строку Ваше имя)!

×
  
Magnet ссылка

Отряд самоубийц / Suicide Squad (Дэвид Эйр ) [2016, фантастика, фэнтези, боевик, WEB-DL 1080p][EXTENDED] Авторский одноголосый [Матвеев Алексей (Doctor Joker)] + [Оригинал] + Субтитры pb.wtf

Отряд самоубийц через торрент pb.wtf

Размер: 5 GB | Добавлен: 5 лет 1 мес. назад | Торрент скачан:121 раз
Смотреть онлайн Отряд самоубийц | Скачать    Ребята, помогите собрать деньги на оплату серверов!!!

22-11-2016 04:52 Отряд самоубийц Скачать торрент  

Отряд самоубийц / Suicide Squad

Год выпуска: 2016
Страна: США
Жанр: фантастика, фэнтези, боевик, приключения

Продолжительность: 02:14:30
Перевод: Авторский одноголосый [Матвеев Алексей (Doctor Joker)]
Субтитры: русские (Forced [Matveev])(на песни и надписи), русские (Full [iTunes]) английские (Full)
Режиссер: Дэвид Эйр
В ролях: Марго Робби (Harley Quinn), Уилл Смит (Deadshot), Джаред Лето (The Joker), Джай Кортни (George Harkness / Captain Boomerang), Кара Делевинь (June Moone / Enchantress), Джей Эрнандес (Diablo), Юэль Киннаман (Rick Flag), Виола Дэвис (Amanda Waller), Адевале Акинойе-Агбаже (Killer Croc), Скотт Иствуд (Lieutenant GQ Edwards), Джейм Фицсаймонс (Sergeant Ames Bravo 14), Айк Баринхолц (Griggs)
Описание:
Правительство решает дать команде суперзлодеев шанс на искупление. Подвох в том, что их отправляют на миссию, где они, вероятнее всего, погибнут.
Рейтинг:

MPAA: PG-13 - Детям до 13 лет просмотр не желателен
Качество: WEB-DL 1080p
Формат: MKV
Видео: AVC, 1916x796 (2.40:1), 4555 kbps, 23,976 fps, 0,125 bpp
Аудио №1: русский / AC3 / 5.1 / 48 kHz / 384 kbps / ||
Аудио №2: английский / AC3 / 5.1 / 48 kHz / 384 kbps /
Навигация по главам: есть

Код:

General
Unique ID                                : 224059420961810990221987072982652044395 (0xA890465A4AAB810E8335D011A470446B)
Complete name                            : D:\Proba\Suicide.Squad.Extended.2016.WEB-DL.1080p.ExKinoRay.mkv
Format                                   : Matroska
Format version                           : Version 4 / Version 2
File size                                : 5.00 GiB
Duration                                 : 2 h 14 min
Overall bit rate                         : 5 326 kb/s
Movie name                               : ExKinoRay
Encoded date                             : UTC 2016-11-21 20:11:30
Writing application                      : mkvmerge v8.3.0 ('Over the Horizon') 64bit
Writing library                          : libebml v1.3.1 + libmatroska v1.4.2

Video
ID                                       : 1
Format                                   : AVC
Format/Info                              : Advanced Video Codec
Format profile                           : High@L4
Format settings, CABAC                   : Yes
Format settings, ReFrames                : 5 frames
Codec ID                                 : V_MPEG4/ISO/AVC
Duration                                 : 2 h 14 min
Bit rate                                 : 4 555 kb/s
Width                                    : 1 916 pixels
Height                                   : 796 pixels
Display aspect ratio                     : 2.40:1
Frame rate mode                          : Constant
Frame rate                               : 23.976 (23976/1000) FPS
Color space                              : YUV
Chroma subsampling                       : 4:2:0
Bit depth                                : 8 bits
Scan type                                : Progressive
Bits/(Pixel*Frame)                       : 0.125
Stream size                              : 4.28 GiB (86%)
Language                                 : English
Default                                  : Yes
Forced                                   : No
Color range                              : Limited
Color primaries                          : BT.709
Transfer characteristics                 : BT.709
Matrix coefficients                      : BT.709

Audio #1
ID                                       : 2
Format                                   : AC-3
Format/Info                              : Audio Coding 3
Mode extension                           : CM (complete main)
Format settings, Endianness              : Big
Codec ID                                 : A_AC3
Duration                                 : 2 h 14 min
Bit rate mode                            : Constant
Bit rate                                 : 384 kb/s
Channel(s)                               : 6 channels
Channel positions                        : Front: L C R, Side: L R, LFE
Sampling rate                            : 48.0 kHz
Frame rate                               : 31.250 FPS (1536 spf)
Compression mode                         : Lossy
Stream size                              : 369 MiB (7%)
Title                                    : AVO [Matveev]
Language                                 : Russian
Default                                  : Yes
Forced                                   : Yes

Audio #2
ID                                       : 3
Format                                   : AC-3
Format/Info                              : Audio Coding 3
Mode extension                           : CM (complete main)
Format settings, Endianness              : Big
Codec ID                                 : A_AC3
Duration                                 : 2 h 14 min
Bit rate mode                            : Constant
Bit rate                                 : 384 kb/s
Channel(s)                               : 6 channels
Channel positions                        : Front: L C R, Side: L R, LFE
Sampling rate                            : 48.0 kHz
Frame rate                               : 31.250 FPS (1536 spf)
Compression mode                         : Lossy
Stream size                              : 369 MiB (7%)
Title                                    : Original
Language                                 : English
Default                                  : No
Forced                                   : No

Text #1
ID                                       : 4
Format                                   : UTF-8
Codec ID                                 : S_TEXT/UTF8
Codec ID/Info                            : UTF-8 Plain Text
Duration                                 : 2 h 5 min
Bit rate                                 : 7 b/s
Count of elements                        : 69
Stream size                              : 7.07 KiB (0%)
Title                                    : Forced [Matveev]
Language                                 : Russian
Default                                  : Yes
Forced                                   : No

Text #2
ID                                       : 5
Format                                   : UTF-8
Codec ID                                 : S_TEXT/UTF8
Codec ID/Info                            : UTF-8 Plain Text
Duration                                 : 2 h 13 min
Bit rate                                 : 72 b/s
Count of elements                        : 1570
Stream size                              : 71.4 KiB (0%)
Title                                    : Full [iTunes]
Language                                 : Russian
Default                                  : No
Forced                                   : No

Text #3
ID                                       : 6
Format                                   : UTF-8
Codec ID                                 : S_TEXT/UTF8
Codec ID/Info                            : UTF-8 Plain Text
Duration                                 : 2 h 7 min
Bit rate                                 : 47 b/s
Count of elements                        : 1619
Stream size                              : 44.6 KiB (0%)
Title                                    : Full
Language                                 : English
Default                                  : No
Forced                                   : No

Menu
00:00:00.000                             : en:1
00:20:22.000                             : en:2
00:35:08.000                             : en:3
00:50:09.000                             : en:4
01:07:25.000                             : en:5
01:21:12.000                             : en:6
01:40:14.000                             : en:7
02:00:50.000                             : en:8

pb.wtf



Скачать Отряд самоубийц через торрент http://i6.imageban.ru/out/2016/11/22/9e38241be644d9a6e7209df55fcf3fee.png Скачать, смотреть онлайн Отряд самоубийц бесплантно в хорошем качестве Описание: Правительство решает дать команде суперзлодеев шанс на искупление. Подвох в том, что их отправляют на миссию, где они, вероятнее ... 8.9 10 9
Info! Золотая раздача, скачанное не засчитывается.
Торрент: Зарегистрирован [2016-11-22 04:52] · скачан: 121 раз
Статус: √ проверено
Размер: 5 GB
Как cкачать? Как скачать Отряд самоубийц через торрент | UTorrent

28-11-2019 20:33  

Отключить всю рекламу на сайте

24-11-2016 20:44 Отряд самоубийц Скачать торрент  

Фильм классный, мне понравился!pb.wtf



    Дорогой пользователь! Огромная просьба, поблагодарите релизера, оцените раздачу и оставьте свои комментарий, если Вы скачали Отряд самоубийц через торрент бесплатно!
    Комментировать посты могут только пользователи прошедшие не сложную регистрацию
    Показать сообщения:    

    Отряд самоубийц через торрент
    Скачать бесплатно Отряд самоубийц
    Отряд самоубийц скачать торрент
    Отряд самоубийц смотреть онлайн
    Cкачать фильм Отряд самоубийц бесплатно
    Отряд самоубийц скачать торрент в хорошем качестве
    Отряд самоубийц смотреть онлайн бесплатно в хорошем качестве


    Вы не можете начинать темы
    Вы не можете отвечать на сообщения
    Вы не можете редактировать свои сообщения
    Вы не можете удалять свои сообщения
    Вы не можете голосовать в опросах
    Вы не можете прикреплять файлы к сообщениям
    Вы можете скачивать файлы