Ссылка на приватное зеркало нашего сайта всего за 1$. Внимание количество ограничено!!!

2 сезон

iTunes

1 сезон

1

2 сезон

2 сезон

iTunes

1 сезон

RePack

30

Новинка

ВАЖНО

ИГРА 18+

pack

RePack

MK11
pack

Забери бонус

RePack

jed

!!Акция!!

Alien_Rage

RePack

fifa19

RePack

Assassins Creed: Odyssey

RePack

NEED FOR SPEED™ PAYBACK

4 сезон

9 сезон

Бесстыжие 9 сезон

Все сериалы

все сериалы на PB.wtf

RePack

FAR CRY 5
  

Библиотекари / The Librarians / Сезон 3 / Серии 1-10 из 10 (Марк Роскин / Marc Roskin, Джонатан Фрейкс / Jonathan Frakes, Ноа Уайли / Noah Wyle) [2016, США, фантастика, приключения, WEB-DLRip-AVC] MVO [LostFilm] pb.wtf

Библиотекари через торрент pb.wtf

Размер: 7.73 GB | Добавлен: 3 года 10 мес. назад | Торрент скачан:71 раз
Скачать  

23-11-2016 01:15 Библиотекари Скачать торрент  

Библиотекари / The Librarians
«Зло под историческим соусом»


  • Год выпуска: 2016
  • Страна: США
  • Жанр: фантастика, приключения
  • Продолжительность: 00:41:47 (Серия)
  • Перевод: Профессиональный многоголосый [LostFilm]
  • Режиссер: Марк Роскин / Marc Roskin, Джонатан Фрейкс / Jonathan Frakes, Ноа Уайли / Noah Wyle
  • В ролях:

    Кристиан Кэйн (Jake Stone), Линди Бут (Cassandra Cillian), Ребекка Ромейн (Eve Baird), Джон Ким (Ezekiel Jones), Джон Ларрокетт (Jenkins), Ноа Уайли (Flynn Carsen), Мэтт Фрюэр (Dulaque), Лесли-Энн Брандт (Lamia), Дэвид С. Ли (Moriarty), Ричард Кокс (Prospero), Стэйси Белл (Museum Employee), Raul Espericueta (Cowboy Bar Patron)


  • Действие разворачивается в Нью-Йорке, где под зданием обычной публичной библиотеки располагается штаб-квартира таинственного ордена. Главный хранитель Флинн Карсен (Ноа Уайли) возглавляет эту организацию уже десять лет. Его задача — защищать сверхъестественные артефакты (Копье судьбы, Ковчег завета, Эскалибур и другие) от врагов, в том числе от невероятно опасного Змеиного Братства. Оно давно мечтает заполучить ценные реликвии, чтобы использовать их магию в своих целях, а Флинн не справляется в одиночку. Тогда к нему на помощь приходит агент по борьбе с терроризмом Ив Бэрд (Ребекка Ромейн). Вместе они подбирают трех других кандидатов на пост верховного библиотекаря. Так, к команде присоединяется Джейк Стоун (Кристиан Кэйн) — работник нефтяной вышки с IQ 190 и энциклопедическими знаниями в области истории искусств. Вместе с ним на защиту артефактов встает Кассандра Киллиан (Линди Бут) — гений математики с фотографической памятью и способностью создавать визуальные и сенсорные галлюцинации. И, наконец, третьим кандидатом становится Эзекиль Джонс (Джон Ким) — специалист по современным технологиям и вор высшего класса. Вместе они должны найти украденные артефакты и нарушить коварные планы Змеиного Братства.
  • Рейтинг:



  • Качество: WEB-DLRip-AVC
  • Формат: :MPEG-4
  • Видео кодек: AVC
  • Аудио кодек: AC3
  • Видео: 1024x576 (16:9), 2000 kbps, 23,976 fps, 0,141 bpp
  • Аудио №1: Русский 2.0 / 48 kHz / 384 kbps / 16 bit
  • Аудио №2: Английский 2.0 / 48 kHz / 384 kbps / 16 bit
  • Релиз от: GEKADOL

    Внимание! Раздача ведётся путём добавления новых серий; при каждом добавлении создаётся новый торрент. Чтобы начать докачку новой серии, пользователям необходимо сделать следующее:
    (1) остановить скачивание,
    (2) удалить старый торрент у себя из клиента (старые серии удалять не надо),
    (3) скачать новый торрент и запустить его у себя в клиенте вместо старого, при этом указать клиенту путь в старую папку куда и должно происходить скачивание новых серий.
    Ваш клиент при этом должен произвести хеширование (проверку) старой папки (если не производит сам - помогите ему сделать это), и будет докачивать только те серии которых у вас ещё нет. Старые серии при этом не удаляются, а продолжают раздаваться!
    Eсли вы уже удалили старые серии, то предотвратить повторную закачку старых серий можно, отжав галочку в соответствующих местах при запуске нового торрента. По возможности, желательно не удалять старые серии как можно дольше чтобы релизёр не столько продолжал раздавать старые серии, а смог сконцентрироваться на новых.

    General
    Complete name : H:\Библиотекари (The Librarians 3)\The.Librarians.S03E01. WEB-DLRip-AVC.rus.LostFilm.TV.mp4
    Format : MPEG-4
    Format profile : Base Media
    Codec ID : isom (isom/iso2/avc1/mp41)
    File size : 802 MiB
    Duration : 41 min
    Overall bit rate : 2 684 kb/s
    Writing application : XviD4PSP 7.0.324 DAILY
    HDVideo : Yes
    encoding_info : MATROSKA / WEBM > MP4 Произвольный / H264 > X264 CBR 2000kbps HQ / AC3 > AC3 CBR 384kbps / AC3 > AC3 CBR 384kbps

    Video
    ID : 1
    Format : AVC
    Format/Info : Advanced Video Codec
    Format profile : High@L3.1
    Format settings, CABAC : Yes
    Format settings, ReFrames : 4 frames
    Codec ID : avc1
    Codec ID/Info : Advanced Video Coding
    Duration : 41 min
    Bit rate : 2 000 kb/s
    Width : 1 024 pixels
    Height : 576 pixels
    Display aspect ratio : 16:9
    Original display aspect ratio : 16:9
    Frame rate mode : Constant
    Frame rate : 23.976 (24000/1001) FPS
    Color space : YUV
    Chroma subsampling : 4:2:0
    Bit depth : 8 bits
    Scan type : Progressive
    Bits/(Pixel*Frame) : 0.141
    Stream size : 571 MiB (71%)
    Writing library : x264 core 148 r2721M 72d53ab
    Encoding settings : cabac=1 / ref=3 / deblock=1:-1:-1 / analyse=0x3:0x133 / me=hex / subme=7 / psy=1 / psy_rd=1.00:0.20 / mixed_ref=1 / me_range=16 / chroma_me=1 / trellis=1 / 8x8dct=1 / cqm=0 / deadzone=21,11 / fast_pskip=1 / chroma_qp_offset=-3 / threads=5 / lookahead_threads=1 / sliced_threads=0 / nr=0 / decimate=1 / interlaced=0 / bluray_compat=0 / constrained_intra=0 / bframes=3 / b_pyramid=2 / b_adapt=2 / b_bias=0 / direct=3 / weightb=1 / open_gop=0 / weightp=2 / keyint=230 / keyint_min=23 / scenecut=40 / intra_refresh=0 / rc_lookahead=40 / rc=cbr / mbtree=1 / bitrate=2000 / ratetol=1.0 / qcomp=0.60 / qpmin=0 / qpmax=69 / qpstep=4 / vbv_maxrate=2000 / vbv_bufsize=2000 / nal_hrd=none / filler=0 / ip_ratio=1.40 / aq=1:1.00

    Audio #1
    ID : 2
    Format : AC-3
    Format/Info : Audio Coding 3
    Mode extension : CM (complete main)
    Format settings, Endianness : Big
    Codec ID : ac-3
    Duration : 41 min
    Bit rate mode : Constant
    Bit rate : 384 kb/s
    Channel(s) : 2 channels
    Channel positions : Front: L R
    Sampling rate : 48.0 kHz
    Frame rate : 31.250 FPS (1536 spf)
    Bit depth : 16 bits
    Compression mode : Lossy
    Stream size : 115 MiB (14%)
    Default : Yes
    Alternate group : 1

    Audio #2
    ID : 3
    Format : AC-3
    Format/Info : Audio Coding 3
    Mode extension : CM (complete main)
    Format settings, Endianness : Big
    Codec ID : ac-3
    Duration : 41 min
    Bit rate mode : Constant
    Bit rate : 384 kb/s
    Channel(s) : 2 channels
    Channel positions : Front: L R
    Sampling rate : 48.0 kHz
    Frame rate : 31.250 FPS (1536 spf)
    Bit depth : 16 bits
    Compression mode : Lossy
    Stream size : 115 MiB (14%)
    Default : No
    Alternate group : 1



    Скриншоты:
    скриншот   скриншот   скриншот   скриншот   скриншот   скриншот   скриншот  
    скриншот  

    Раздача ведётся путём добавления новых серий. Добавлена 10 серия (25.01.2017).Просьба перекачать торрент файл.

    pb.wtf



  • Скачать Библиотекари через торрент http://i84.fastpic.ru/big/2016/1123/b8/4a44aac22afd8e2c6a707791d81da8b8.jpeg Скачать фильм Библиотекари через торрент бесплантно в хорошем качестве qw.png Действие разворачивается в Нью-Йорке, где под зданием обычной публичной библиотеки располагается штаб-квартира таинственного ... 10 10 14
    Info! Золотая раздача, скачанное не засчитывается.
    Торрент: Зарегистрирован [2017-01-25 01:24] · скачан: 71 раз
    Статус: √ проверено
    Размер: 7.73 GB
    Как cкачать? Как скачать Библиотекари через торрент | qTorrent

    % Раздел Тема Автор DL S | L
    Зарубежные сериалы [ 10.3 GB ] Библиотекари / The Librarians / Сезон 3 / Серии 1-10 из 10 [2016 HDTVRip 720p] [DVO] killermax2013 Скачать
    1 | 0
    Зарубежные сериалы [ 4.4 GB ] Библиотекари / The Librarians / Сезон 3 / Серии 1-10 из 10 [2016 WEB-DLRip] [MVO] [LostFilm] killermax2013 Скачать
    1 | 0
    Зарубежные сериалы [ 8.07 GB ] Библиотекари / The Librarians / Сезон 3 / Серии 1-10 из 10 [2016 WEB-DLRip-AVC] MVO [BaibaKo] GEKADOL Скачать
    1 | 0

    28-11-2019 20:33  

    Отключить всю рекламу на сайте

      Дорогой пользователь! Огромная просьба, поблагодарите релизера, оцените раздачу и оставьте свои комментарий, если Вы скачали Библиотекари через торрент бесплатно! Внесите свою лепту в развитие PiratBit!
      Комментировать посты могут только пользователи прошедшие не сложную регистрацию
      Показать сообщения:    

      Библиотекари через торрент
      Скачать бесплатно Библиотекари
      Библиотекари скачать торрент
      Библиотекари смотреть онлайн
      Cкачать фильм Библиотекари бесплатно
      Библиотекари скачать торрент в хорошем качестве
      Библиотекари смотреть онлайн бесплатно в хорошем качестве


      Вы не можете начинать темы
      Вы не можете отвечать на сообщения
      Вы не можете редактировать свои сообщения
      Вы не можете удалять свои сообщения
      Вы не можете голосовать в опросах
      Вы не можете прикреплять файлы к сообщениям
      Вы можете скачивать файлы