2 сезон

iTunes

1 сезон

1

iTunes

iTunes

iTunes

1 сезон

RePack

30

ИГРА 18+

pack

ВАЖНО

!!Акция!!

Alien_RageХит недели

RePack

MK11
pack

Забери бонус

RePack

jed

!!Акция!!

Alien_Rage

RePack

fifa19

RePack

Assassins Creed: Odyssey

RePack

NEED FOR SPEED™ PAYBACK

4 сезон

9 сезон

Бесстыжие 9 сезон

Все сериалы

все сериалы на PB.wtf

RePack

FAR CRY 5
  

Социальная сеть / The Social Network (Дэвид Финчер) [2010, драма, биография, BDRip 720p by msltel] DUB, 4 x AVO pb.wtf

Социальная сеть через торрент pb.wtf

Размер: 4.51 GB | Добавлен: 3 года 11 мес. назад | Торрент скачан:86 раз
Скачать  

23-11-2016 07:24 Социальная сеть Скачать торрент  

Название: Социальная сеть
Оригинальное название: The Social Network
Год выпуска: 2010
Страна: США
Жанр: драма, биография
Продолжительность: 02:00:27
Перевод: дублированный, авторский

Режиссёр: Дэвид Финчер

В ролях: Джесси Айзенберг, Эндрю Гарфилд, Джастин Тимберлэйк, Арми Хаммер, Макс Мингелла, Рашида Джонс, Бренда Сонг, Руни Мара, Брайан Бартер, Дастин Фицсаймонс, Джозеф Маццелло, Патрик Мэпл, Тоби Меули, Алисия Свенсен, Джэми Оуэн, Джеймс Дастоли, Роберт Дастоли, Скотти Кроу, Джейк Галлахер, Марселла Ленц-Поуп, Тревор Райт, Бэрри Ливингстон, Мэрибет Мэссет, Рэнди Эванс, Денис Грэйсон, Джон Гец, Кэрри Армстронг, Генри Рузвельт, Джошуа Пенс, Дэвид Селби, Памела Ройленс, Брайан Палермо, Бретт Ли, Крис Гушо, Николас Таббс, Кевин Чуй, Ричард Феррис, Бурк Уолтон, Ан Туан Нгуйен, Дэйн Найтингейл, Эмма Фитцпатрик, Стивен Фуллер, Джон Хе

Описание: В фильме рассказывается о создании одной из самых популярных в Интернете социальных сетей — Facebook. Оглушительный успех этой сети среди пользователей по всему миру навсегда изменил жизнь студентов-однокурсников гарвардского университета, которые основали её в 2004 году и за несколько лет стали самыми молодыми мультимиллионерами в США... Фильм - адаптация книги Бена Мезрича.



Качество: BDRip 720p Сравнение с исходником
Формат: MKV
Видео: MPEG-4 AVC, 1384 Кбит/с, 1280x532, 23,976 кадра/с
Аудио 1: русский, AC3, 640 kbps, 6 ch, 48 kHz [дублированный]
Аудио 2: украинский, AC3, 640 kbps, 6 ch, 48 kHz [дублированный]
Аудио 3: русский, AC3, 448 kbps, 6 ch, 48 kHz [авторский, Сергей Визгунов]
Аудио 4: русский, AC3, 448 kbps, 6 ch, 48 kHz [авторский, Александр Дасевич]
Аудио 5: русский, AC3, 448 kbps, 6 ch, 48 kHz [авторский, Антон Дольский]
Аудио 6: русский, AC3, 448 kbps, 6 ch, 48 kHz [авторский, Алексей Матвеев]
Аудио 7: русский, AC3, 448 kbps, 6 ch, 48 kHz [авторский, Алексей Матвеев, без цензуры]
Аудио 8: английский, AC3, 448 kbps, 6 ch, 48 kHz [оригинал]
Субтитры 1: русские (надписи)
Субтитры 2: русские
Субтитры 3: английские
Имеются неименованные главы/чаптеры.
frame I:2260 Avg QP:14.39 size: 60553
frame P:40244 Avg QP:15.59 size: 14537
frame B:130776 Avg QP:17.46 size: 4040
Общее
Уникальный идентификатор : 203460697910238749430254193361173521802 (0x99111AE54931CE77A0383910071AA58A)
Полное имя : D:\Video\Социальнвя сеть.2010.BDRip.720p by msltel.mkv
Формат : Matroska
Версия формата : Version 4 / Version 2
Размер файла : 4,51 Гбайт
Продолжительность : 2 ч. 0 м.
Общий поток : 5356 Кбит/сек
Название фильма : Rip by msltel
Дата кодирования : UTC 2016-11-23 02:47:30
Программа кодирования : mkvmerge v8.2.0 ('World of Adventure') 64bit
Библиотека кодирования : libebml v1.3.1 + libmatroska v1.4.2

Видео
Идентификатор : 1
Формат : AVC
Формат/Информация : Advanced Video Codec
Профиль формата : High@L4.1
Параметр CABAC формата : Да
Параметр ReFrames формата : 9 кадров
Идентификатор кодека : V_MPEG4/ISO/AVC
Продолжительность : 2 ч. 0 м.
Битрейт : 1384 Кбит/сек
Ширина : 1280 пикселей
Высота : 532 пикселя
Соотношение сторон : 2,40:1
Режим частоты кадров : Постоянный
Частота кадров : 23,976 (24000/1001) кадра/сек
Цветовое пространство : YUV
Субдискретизация насыщенности : 4:2:0
Битовая глубина : 8 бит
Тип развёртки : Прогрессивная
Бит/(Пиксели*Кадры) : 0.085
Размер потока : 1,16 Гбайт (26%)
Библиотека кодирования : x264 core 146 r2538 121396c
Настройки программы : cabac=1 / ref=9 / deblock=1:-1:-1 / analyse=0x3:0x113 / me=umh / subme=9 / psy=1 / psy_rd=1.00:0.15 / mixed_ref=1 / me_range=32 / chroma_me=1 / trellis=1 / 8x8dct=1 / cqm=0 / deadzone=21,11 / fast_pskip=0 / chroma_qp_offset=-3 / threads=6 / lookahead_threads=1 / sliced_threads=0 / nr=0 / decimate=1 / interlaced=0 / bluray_compat=0 / constrained_intra=0 / bframes=7 / b_pyramid=2 / b_adapt=2 / b_bias=0 / direct=1 / weightb=1 / open_gop=0 / weightp=2 / keyint=230 / keyint_min=23 / scenecut=40 / intra_refresh=0 / rc_lookahead=40 / rc=crf / mbtree=0 / crf=20.0 / qcomp=0.60 / qpmin=0 / qpmax=69 / qpstep=4 / vbv_maxrate=50000 / vbv_bufsize=62500 / crf_max=0.0 / nal_hrd=none / filler=0 / ip_ratio=1.40 / pb_ratio=1.30 / aq=1:1.00
Язык : English
Default : Да
Forced : Нет

Аудио #1
Идентификатор : 2
Формат : AC-3
Формат/Информация : Audio Coding 3
Расширение режима : CM (complete main)
Параметр Endianness формата : Big
Идентификатор кодека : A_AC3
Продолжительность : 2 ч. 0 м.
Вид битрейта : Постоянный
Битрейт : 640 Кбит/сек
Каналы : 6 каналов
Расположение каналов : Front: L C R, Side: L R, LFE
Частота : 48,0 КГц
Частота кадров : 31,250 кадров/сек (1536 spf)
Метод сжатия : С потерями
Размер потока : 551 Мбайт (12%)
Заголовок : DUB
Язык : Russian
Default : Да
Forced : Нет

Аудио #2
Идентификатор : 3
Формат : AC-3
Формат/Информация : Audio Coding 3
Расширение режима : CM (complete main)
Параметр Endianness формата : Big
Идентификатор кодека : A_AC3
Продолжительность : 2 ч. 0 м.
Вид битрейта : Постоянный
Битрейт : 640 Кбит/сек
Каналы : 6 каналов
Расположение каналов : Front: L C R, Side: L R, LFE
Частота : 48,0 КГц
Частота кадров : 31,250 кадров/сек (1536 spf)
Метод сжатия : С потерями
Размер потока : 551 Мбайт (12%)
Заголовок : DUB
Язык : Ukrainian
Default : Нет
Forced : Нет

Аудио #3
Идентификатор : 4
Формат : AC-3
Формат/Информация : Audio Coding 3
Расширение режима : CM (complete main)
Параметр Endianness формата : Big
Идентификатор кодека : A_AC3
Продолжительность : 2 ч. 0 м.
Вид битрейта : Постоянный
Битрейт : 448 Кбит/сек
Каналы : 6 каналов
Расположение каналов : Front: L C R, Side: L R, LFE
Частота : 48,0 КГц
Частота кадров : 31,250 кадров/сек (1536 spf)
Метод сжатия : С потерями
Размер потока : 386 Мбайт (8%)
Заголовок : AVO (Сергей Визгунов)
Язык : Russian
Default : Нет
Forced : Нет

Аудио #4
Идентификатор : 5
Формат : AC-3
Формат/Информация : Audio Coding 3
Расширение режима : CM (complete main)
Параметр Endianness формата : Big
Идентификатор кодека : A_AC3
Продолжительность : 2 ч. 0 м.
Вид битрейта : Постоянный
Битрейт : 448 Кбит/сек
Каналы : 6 каналов
Расположение каналов : Front: L C R, Side: L R, LFE
Частота : 48,0 КГц
Частота кадров : 31,250 кадров/сек (1536 spf)
Метод сжатия : С потерями
Размер потока : 386 Мбайт (8%)
Заголовок : AVO (Александр Дасевич)
Язык : Russian
Default : Нет
Forced : Нет

Аудио #5
Идентификатор : 6
Формат : AC-3
Формат/Информация : Audio Coding 3
Расширение режима : CM (complete main)
Параметр Endianness формата : Big
Идентификатор кодека : A_AC3
Продолжительность : 2 ч. 0 м.
Вид битрейта : Постоянный
Битрейт : 448 Кбит/сек
Каналы : 6 каналов
Расположение каналов : Front: L C R, Side: L R, LFE
Частота : 48,0 КГц
Частота кадров : 31,250 кадров/сек (1536 spf)
Метод сжатия : С потерями
Размер потока : 386 Мбайт (8%)
Заголовок : AVO (Антон Дольский)
Язык : Russian
Default : Нет
Forced : Нет

Аудио #6
Идентификатор : 7
Формат : AC-3
Формат/Информация : Audio Coding 3
Расширение режима : CM (complete main)
Параметр Endianness формата : Big
Идентификатор кодека : A_AC3
Продолжительность : 2 ч. 0 м.
Вид битрейта : Постоянный
Битрейт : 448 Кбит/сек
Каналы : 6 каналов
Расположение каналов : Front: L C R, Side: L R, LFE
Частота : 48,0 КГц
Частота кадров : 31,250 кадров/сек (1536 spf)
Метод сжатия : С потерями
Размер потока : 386 Мбайт (8%)
Заголовок : AVO (Алексей Матвеев)
Язык : Russian
Default : Нет
Forced : Нет

Аудио #7
Идентификатор : 8
Формат : AC-3
Формат/Информация : Audio Coding 3
Расширение режима : CM (complete main)
Параметр Endianness формата : Big
Идентификатор кодека : A_AC3
Продолжительность : 2 ч. 0 м.
Вид битрейта : Постоянный
Битрейт : 448 Кбит/сек
Каналы : 6 каналов
Расположение каналов : Front: L C R, Side: L R, LFE
Частота : 48,0 КГц
Частота кадров : 31,250 кадров/сек (1536 spf)
Метод сжатия : С потерями
Размер потока : 386 Мбайт (8%)
Заголовок : AVO (Алексей Матвеев, без цензуры)
Язык : Russian
Default : Нет
Forced : Нет

Аудио #8
Идентификатор : 9
Формат : AC-3
Формат/Информация : Audio Coding 3
Расширение режима : CM (complete main)
Параметр Endianness формата : Big
Идентификатор кодека : A_AC3
Продолжительность : 2 ч. 0 м.
Вид битрейта : Постоянный
Битрейт : 448 Кбит/сек
Каналы : 6 каналов
Расположение каналов : Front: L C R, Side: L R, LFE
Частота : 48,0 КГц
Частота кадров : 31,250 кадров/сек (1536 spf)
Метод сжатия : С потерями
Размер потока : 386 Мбайт (8%)
Заголовок : original
Язык : English
Default : Нет
Forced : Нет

Текст #1
Идентификатор : 10
Формат : UTF-8
Идентификатор кодека : S_TEXT/UTF8
Идентификатор кодека/Информация : UTF-8 Plain Text
Продолжительность : 1 ч. 49 м.
Битрейт : 1 бит/сек
Count of elements : 20
Размер потока : 1,30 Кбайт (0%)
Заголовок : русские (надписи)
Язык : Russian
Default : Да
Forced : Да

Текст #2
Идентификатор : 11
Формат : UTF-8
Идентификатор кодека : S_TEXT/UTF8
Идентификатор кодека/Информация : UTF-8 Plain Text
Продолжительность : 1 ч. 55 м.
Битрейт : 163 бит/сек
Count of elements : 2302
Размер потока : 138 Кбайт (0%)
Заголовок : русские
Язык : Russian
Default : Нет
Forced : Нет

Текст #3
Идентификатор : 12
Формат : UTF-8
Идентификатор кодека : S_TEXT/UTF8
Идентификатор кодека/Информация : UTF-8 Plain Text
Продолжительность : 1 ч. 53 м.
Битрейт : 111 бит/сек
Count of elements : 2290
Размер потока : 92,6 Кбайт (0%)
Заголовок : английские
Язык : English
Default : Нет
Forced : Нет

Меню
00:00:00.000 : :Chapter 01
00:07:33.411 : :Chapter 02
00:17:15.409 : :Chapter 03
00:24:20.000 : :Chapter 04
00:31:07.115 : :Chapter 05
00:34:47.501 : :Chapter 06
00:44:27.163 : :Chapter 07
00:50:54.300 : :Chapter 08
00:55:39.251 : :Chapter 09
01:00:15.612 : :Chapter 10
01:11:41.130 : :Chapter 11
01:18:29.496 : :Chapter 12
01:24:22.474 : :Chapter 13
01:33:16.966 : :Chapter 14
01:38:04.086 : :Chapter 15
01:47:09.713 : :Chapter 16

МОИ РЕЛИЗЫ
ВКОНТАКТЕ
pb.wtf



Скачать Социальная сеть через торрент http://s018.radikal.ru/i512/1611/04/4ddf2312b8f2.png Скачать фильм Социальная сеть через торрент бесплантно в хорошем качестве Описание: В фильме рассказывается о создании одной из самых популярных в Интернете социальных сетей — Facebook. Оглушительный успех этой ... 7 10 6
Торрент: Зарегистрирован [2016-11-23 07:24] · скачан: 86 раз
Статус: # сомнительно
Размер: 4.51 GB
Как cкачать? Как скачать Социальная сеть через торрент | qTorrent

28-11-2019 20:33  

Отключить всю рекламу на сайте

    Дорогой пользователь! Огромная просьба, поблагодарите релизера, оцените раздачу и оставьте свои комментарий, если Вы скачали Социальная сеть через торрент бесплатно! Внесите свою лепту в развитие PiratBit!
    Комментировать посты могут только пользователи прошедшие не сложную регистрацию
    Показать сообщения:    

    Социальная сеть через торрент
    Скачать бесплатно Социальная сеть
    Социальная сеть скачать торрент
    Социальная сеть смотреть онлайн
    Cкачать фильм Социальная сеть бесплатно
    Социальная сеть скачать торрент в хорошем качестве
    Социальная сеть смотреть онлайн бесплатно в хорошем качестве


    Вы не можете начинать темы
    Вы не можете отвечать на сообщения
    Вы не можете редактировать свои сообщения
    Вы не можете удалять свои сообщения
    Вы не можете голосовать в опросах
    Вы не можете прикреплять файлы к сообщениям
    Вы можете скачивать файлы