Присоединяйтесь к нам в Telegram!, здесь всегда актуальный адрес сайта, оперативная поддержка и многое другое!!

>

5.9

iTunes

7.4

iTunes

9.4

1 сезон

1

7.4

2 сезон

7.2

iTunes

7.3

1 сезон

13

6.1

iTunes

8.3

GOG

30

ULTIMATE

pack

9.9

Лицензия

ВАЖНО

ИГРА 18+

pack

7.3

RePack

MK11

7.7

RePack

jed

7.8

RePack

fifa19

8.5

RePack

RDR2

RePack

NEED FOR SPEED™ PAYBACK

5 сезон

9 сезон

Бесстыжие 9 сезон

Все сериалы

все сериалы на PB.wtf

RePack

FAR CRY 5

Anonymous, доброй ночи, мы катастрофически не успеваем собрать деньги на оплату серверов, помогите нам пожалуйста 5,10,15р., для нас важна любая помощь . В качестве благодарности мы отключим Вам всю рекламу на сайте (укажите свой ник в строку Ваше имя)!

×
  
Magnet ссылка

Мокрые девушки / Wet Wet Girls [2016 г., Adult erotic music clips, WEB-DL 720p] pb.wtf

Мокрые девушки через торрент pb.wtf

Размер: 3.28 GB | Добавлен: 5 лет назад | Торрент скачан:509 раз
Смотреть онлайн Мокрые девушки | Скачать    Ребята, помогите собрать деньги на оплату серверов!!!

23-11-2016 10:38 Мокрые девушки Скачать торрент  

Мокрые девушки / Wet Wet Girls
Год выпуска: 2016
Страна: All World
Жанр: Adult erotic music clips
Продолжительность: 02:51:19

Описание: Мокрые и красивые девушки в эроклипах...

Качество: WEB-DL 720p
Формат: MP4
Видео кодек: AVC
Аудио кодек: AAC
Видео: AVC, 1280x720 (16:9), 24.000 fps, 2 500 Kbps (0.113 bit/pixel)
Аудио#1: AAC LC, 48.0 KHz, 2 ch, 256 Kbps, VBR
01. Moxi - Ginger Splash
02. Sexy Sheer pink micro bikini
03. Melissa Paredes
04. Jacuzzi shoot
05. Lauren Bedroom
06. Nicole Vaunt Sunday Strip
07. A Mini Micro Bikini Never Looked Better
08. MARIE MADELEINE - Swimming pool
09. Slip and slide
10. Gipsy Beach Party
11. A Sunny Day With Nikolart In The Pool
12. Room XX L
13. Talia - Wet Anticipation
14. Lilly-Rae - Swimming Pool
15. Abby - A Bit of Fun Oiling Up
16. Ballin' Babes Presents- Laura Brunskill
17. Kyra Milan
18. All Mine
19. Lush beauty - Niemira
20. Chelsie Aryn – Dazzling Babe
21. Hot and Pretty
22. Alone in the shower
23. Very Sexy Sheer Baby Blue Micro Bikini
24. Nude
25. Amazing Busty Model in Micro Bikinis
26. Jessica Goicoechea
27. Clare Richards
28. Sexy Beach Party 2
29. Gloria - Sol Pool
30. Unstill Waters
31. Three Beautiful Girls - Having Shower
32. Aqua Diaboli
33. Sumertime
34. Clip Nu
35. Soaking Wet Sheer
36. Gorgeous Fishnet
37. JUPITER FL- Blowing Rocks
38. Underwater Angel
39. Shyla Jennings - Caught in the Fishnet
40. Summer Youth
41. Light Blue - Monika Balan
42. POOL PARTY
43. HYDRATE POOL PARTY
44. You'll Luv This
45. Lola Taylor - Experiance With Ice Cubes
скриншот   скриншот   скриншот   скриншот   скриншот  
скриншот   скриншот   скриншот   скриншот   скриншот   скриншот  
Общее
Полное имя : C:\Раздача\Клипы\Wet Wet Girls (2016)\01. Moxi - Ginger Splash.mp4
Формат : MPEG-4
Профиль формата : Base Media / Version 2
Идентификатор кодека : mp42 (mp42/mp41/isom/avc1)
Размер файла : 64,9 Мбайт
Продолжительность : 3 м. 17 с.
Режим общего битрейта : Переменный
Общий поток : 2754 Кбит/сек
Дата кодирования : UTC 2016-10-03 23:03:52
Дата пометки : UTC 2016-10-03 23:03:52

Видео
Идентификатор : 1
Формат : AVC
Формат/Информация : Advanced Video Codec
Профиль формата : High@L3.2
Параметр CABAC формата : Да
Параметр ReFrames формата : 5 кадров
Идентификатор кодека : avc1
Идентификатор кодека/Информация : Advanced Video Coding
Продолжительность : 3 м. 17 с.
Битрейт : 2500 Кбит/сек
Ширина : 1280 пикселей
Высота : 720 пикселей
Соотношение сторон : 16:9
Режим частоты кадров : Постоянный
Частота кадров : 24,000 кадра/сек
Цветовое пространство : YUV
Субдискретизация насыщенности : 4:2:0
Битовая глубина : 8 бит
Тип развёртки : Прогрессивная
Бит/(Пиксели*Кадры) : 0.113
Размер потока : 58,8 Мбайт (91%)
Библиотека кодирования : x264 core 148 r10 3f5ed56
Настройки программы : cabac=1 / ref=5 / deblock=1:0:0 / analyse=0x3:0x113 / me=umh / subme=8 / psy=1 / psy_rd=1.00:0.00 / mixed_ref=1 / me_range=16 / chroma_me=1 / trellis=1 / 8x8dct=1 / cqm=0 / deadzone=21,11 / fast_pskip=1 / chroma_qp_offset=-2 / threads=22 / lookahead_threads=3 / sliced_threads=0 / nr=0 / decimate=1 / interlaced=0 / bluray_compat=0 / stitchable=1 / constrained_intra=0 / bframes=3 / b_pyramid=2 / b_adapt=2 / b_bias=0 / direct=3 / weightb=1 / open_gop=0 / weightp=2 / keyint=infinite / keyint_min=24 / scenecut=40 / intra_refresh=0 / rc_lookahead=50 / rc=2pass / mbtree=1 / bitrate=2500 / ratetol=1.0 / qcomp=0.60 / qpmin=5 / qpmax=69 / qpstep=4 / cplxblur=20.0 / qblur=0.5 / vbv_maxrate=2750 / vbv_bufsize=7500 / nal_hrd=none / filler=0 / ip_ratio=1.40 / aq=1:1.00
Дата кодирования : UTC 2016-10-03 23:03:52
Дата пометки : UTC 2016-10-03 23:03:52
Цветовой диапазон : Limited
Основные цвета : BT.709
Характеристики трансфера : BT.709
Коэффициенты матрицы : BT.709

Аудио
Идентификатор : 2
Формат : AAC
Формат/Информация : Advanced Audio Codec
Профиль формата : LC
Идентификатор кодека : 40
Продолжительность : 3 м. 17 с.
Вид битрейта : Переменный
Битрейт : 256 Кбит/сек
Каналы : 2 канала
Расположение каналов : Front: L R
Частота : 48,0 КГц
Частота кадров : 46,875 кадров/сек (1024 spf)
Метод сжатия : С потерями
Размер потока : 6,03 Мбайт (9%)
Дата кодирования : UTC 2016-10-03 23:03:52
Дата пометки : UTC 2016-10-03 23:03:52
pb.wtf



Скачать Мокрые девушки через торрент https://pic1.kartinco.top/images/11/jfca1.jpg Скачать, смотреть онлайн Мокрые девушки бесплантно в хорошем качестве Описание: Мокрые и красивые девушки в ... 9.5 10 26
Info! Золотая раздача, скачанное не засчитывается.
Торрент: Зарегистрирован [2016-11-23 10:38] · скачан: 509 раз
Статус: √ проверено
Размер: 3.28 GB
Как cкачать? Как скачать Мокрые девушки через торрент | UTorrent

% Раздел Тема Автор DL S | L
Лесбиянки [ 1.37 GB ] Топовые Мокрые Девушки #7 / Top Wet Girls #7 [2011 Anal Girl-Girl All Girl Toy Play DVDRip] Released: 1/10/2011 Majestro Скачать
1 | 0
Лесбиянки [ 1.36 GB ] Top Wet Girls 4 / Топовые Мокрые Девушки 4 [2009 Anal Girl-Girl All Girl. . DVDRip] * Shmel Скачать
1 | 0

28-11-2019 20:33  

Отключить всю рекламу на сайте

27-11-2016 13:53 Мокрые девушки Скачать торрент  

а где Sabrina Boys? Один из лучших роликов где девки мокрыеpb.wtf



01-05-2018 02:25 Мокрые девушки Скачать торрент  

Раздачу делай...pb.wtf



01-05-2018 11:17 Мокрые девушки Скачать торрент  

Благодарим за труды.....pb.wtf



    Дорогой пользователь! Огромная просьба, поблагодарите релизера, оцените раздачу и оставьте свои комментарий, если Вы скачали Мокрые девушки через торрент бесплатно!
    Комментировать посты могут только пользователи прошедшие не сложную регистрацию
    Показать сообщения:    

    Мокрые девушки через торрент
    Скачать бесплатно Мокрые девушки
    Мокрые девушки скачать торрент
    Мокрые девушки смотреть онлайн
    Cкачать фильм Мокрые девушки бесплатно
    Мокрые девушки скачать торрент в хорошем качестве
    Мокрые девушки смотреть онлайн бесплатно в хорошем качестве


    Вы не можете начинать темы
    Вы не можете отвечать на сообщения
    Вы не можете редактировать свои сообщения
    Вы не можете удалять свои сообщения
    Вы не можете голосовать в опросах
    Вы не можете прикреплять файлы к сообщениям
    Вы можете скачивать файлы