2 сезон

iTunes

1 сезон

1

iTunes

iTunes

iTunes

1 сезон

RePack

30

ИГРА 18+

pack

ВАЖНО

!!Акция!!

Alien_RageХит недели

RePack

MK11
pack

Забери бонус

RePack

jed

!!Акция!!

Alien_Rage

RePack

fifa19

RePack

Assassins Creed: Odyssey

RePack

NEED FOR SPEED™ PAYBACK

4 сезон

9 сезон

Бесстыжие 9 сезон

Все сериалы

все сериалы на PB.wtf

RePack

FAR CRY 5
  

Жизнь других / The Lives of Others (Флориан Хенкель фон Доннерсмарк) [2006, триллер, драма, BDRip 1080p от еnvy / NNNB] DUB pb.wtf

Жизнь других через торрент pb.wtf

Раздают: 28 [ 2 MB/s ] Качают: 3 [ 0 KB/s ]
Размер: 11.53 GB | Добавлен: 3 года 11 мес. назад | Торрент скачан:67 раз
Скачать  

23-11-2016 17:55 Жизнь других Скачать торрент  

Информация о фильме

Русское название: Жизнь других
Оригинальное название: The Lives of Others / Das Leben der Anderen
Год выхода: 2006
Жанр: триллер, драма
Режиссер: Флориан Хенкель фон Доннерсмарк
Выпущено: Германия
Продолжительность: 02:17:36
Перевод: Дублированый
В ролях: Мартина Гедек, Ульрих Мюэ, Себастьян Кох, Ульрих Тукур, Томас Тиме, Ханс-Уве Бауэр, Фолькмар Клейнерт, Матиас Бреннер, Чарли Хюбнер, Херберт Науп
Сюжет фильма

Восточный Берлин, ноябрь 1984 года. За пять лет до своего низвержения восточно-германское правительство обеспечивает свои притязания на Влacть беспощадной системой контроля и сыска. Преданный партиец капитан Герд Вислер надеется подняться по служебной лестнице, выполняя работу по сбору улик против драматурга Георга Дрaймана и его подруги - знаменитой театральной актрисы Кристы-Марии Зиланд.
Однако он не ожидал, что погружение в мир объекта наблюдения меняет и самого сыскного агента. Погружение в жизнь других - в любовь, литературу, свободу мысли и слова - приводит Вислера к острому осознанию скудости его собственного существования и открывает ему совершенно новый образ жизни, противостоять которому становится все сложнее. Но когда система уже запущена, она не может быть остановлена. Опасная игра началась…


Файл

Качество: BDRip 1080p (исходник Blu-Ray Disc)
Формат: MKV
Видео: 1918x808, 10732 Кбит/сек, 24,000 кадр/сек, AVC, x264, High@L4.1, 2.40:1, 0.289 Бит/[Пиксели*Кадры]
Аудио 1: AC-3, 640 Кбит/сек, 6 канала(ов), 48,0 КГц - Дублированный / Русский
Аудио 2: AC-3, 640 Кбит/сек, 6 канала(ов), 48,0 КГц - Оригинал / Немецкий
Субтитры: Русские | Полные, Английские | Полные, Немецкие | Полные
Форсированные субтитры: Нет
Чаптеры (Главы): Есть






Автор Рипа: Группа:


Format : Matroska
Format version : Version 2
File size : 11.5 GiB
Duration : 2 h 17 min
Overall bit rate : 12.0 Mb/s
Movie name : The Lives of Others.(2006).BDRip.1080p.[envy]
Encoded date : UTC 2016-11-23 16:52:02
Writing application : mkvmerge v5.8.0 ('No Sleep / Pillow') built on Sep 2 2012 15:37:04
Writing library : libebml v1.2.3 + libmatroska v1.3.0

Video
ID : 1
Format : AVC
Format/Info : Advanced Video Codec
Format profile : High@L4.1
Format settings, CABAC : Yes
Format settings, ReFrames : 5 frames
Codec ID : V_MPEG4/ISO/AVC
Duration : 2 h 17 min
Bit rate : 10.7 Mb/s
Width : 1 918 pixels
Height : 808 pixels
Display aspect ratio : 2.40:1
Frame rate mode : Constant
Frame rate : 24.000 FPS
Color space : YUV
Chroma subsampling : 4:2:0
Bit depth : 8 bits
Scan type : Progressive
Bits/(Pixel*Frame) : 0.289
Stream size : 10.1 GiB (87%)
Title : The Lives of Others.(2006).BDRip.1080p.[envy]
Writing library : x264 core 148 r2721 72d53ab
Encoding settings : cabac=1 / ref=5 / deblock=1:-3:-3 / analyse=0x3:0x113 / me=umh / subme=11 / psy=1 / psy_rd=1.00:0.00 / mixed_ref=1 / me_range=32 / chroma_me=1 / trellis=2 / 8x8dct=1 / cqm=0 / deadzone=21,11 / fast_pskip=0 / chroma_qp_offset=-2 / threads=12 / lookahead_threads=1 / sliced_threads=0 / nr=0 / decimate=1 / interlaced=0 / bluray_compat=0 / constrained_intra=0 / bframes=5 / b_pyramid=2 / b_adapt=2 / b_bias=0 / direct=3 / weightb=1 / open_gop=0 / weightp=2 / keyint=240 / keyint_min=23 / scenecut=40 / intra_refresh=0 / rc=2pass / mbtree=0 / bitrate=10732 / ratetol=2.0 / qcomp=0.60 / qpmin=0 / qpmax=69 / qpstep=4 / cplxblur=20.0 / qblur=0.5 / ip_ratio=1.40 / pb_ratio=1.30 / aq=2:0.80
Language : English
Default : Yes
Forced : No

Audio #1
ID : 2
Format : AC-3
Format/Info : Audio Coding 3
Mode extension : CM (complete main)
Format settings, Endianness : Big
Codec ID : A_AC3
Duration : 2 h 17 min
Bit rate mode : Constant
Bit rate : 640 kb/s
Channel(s) : 6 channels
Channel positions : Front: L C R, Side: L R, LFE
Sampling rate : 48.0 kHz
Frame rate : 31.250 FPS (1536 spf)
Compression mode : Lossy
Stream size : 630 MiB (5%)
Title : Dub
Language : Russian
Default : Yes
Forced : No

Audio #2
ID : 3
Format : AC-3
Format/Info : Audio Coding 3
Mode extension : CM (complete main)
Format settings, Endianness : Big
Codec ID : A_AC3
Duration : 2 h 17 min
Bit rate mode : Constant
Bit rate : 640 kb/s
Channel(s) : 6 channels
Channel positions : Front: L C R, Side: L R, LFE
Sampling rate : 48.0 kHz
Frame rate : 31.250 FPS (1536 spf)
Compression mode : Lossy
Stream size : 630 MiB (5%)
Title : Ger
Language : German
Default : No
Forced : No

Text #1
ID : 4
Format : UTF-8
Codec ID : S_TEXT/UTF8
Codec ID/Info : UTF-8 Plain Text
Title : Rus full
Language : Russian
Default : No
Forced : No

Text #2
ID : 5
Format : UTF-8
Codec ID : S_TEXT/UTF8
Codec ID/Info : UTF-8 Plain Text
Title : Eng full
Language : English
Default : No
Forced : No

Text #3
ID : 6
Format : UTF-8
Codec ID : S_TEXT/UTF8
Codec ID/Info : UTF-8 Plain Text
Title : Ger full
Language : German
Default : No
Forced : No

Menu
00:00:00.000 : :Chapter 01
00:07:16.541 : :Chapter 02
00:18:27.375 : :Chapter 03
00:29:20.375 : :Chapter 04
00:33:10.958 : :Chapter 05
00:39:56.583 : :Chapter 06
00:54:48.083 : :Chapter 07
01:01:08.083 : :Chapter 08
01:10:16.958 : :Chapter 09
01:21:00.208 : :Chapter 10
01:31:32.625 : :Chapter 11
01:41:12.708 : :Chapter 12
01:50:00.083 : :Chapter 13
01:57:37.958 : :Chapter 14
02:01:56.916 : :Chapter 15
02:08:27.083 : :Chapter 16

pb.wtf



Скачать Жизнь других через торрент http://img11.lostpic.net/2016/11/23/2f2fa94acb5bda6e6ad022ed0253749f.png Скачать фильм Жизнь других через торрент бесплантно в хорошем качестве В ролях: Мартина Гедек, Ульрих Мюэ, Себастьян Кох, Ульрих Тукур, Томас Тиме, Ханс-Уве Бауэр, Фолькмар Клейнерт, Матиас Бреннер, Чарли ... 7 10 3
Торрент: Зарегистрирован [2016-11-23 18:01] · скачан: 67 раз
Статус: √ проверено
Размер: 11.53 GB
Как cкачать? Как скачать Жизнь других через торрент | qTorrent



Последний раз редактировалось: еnvy (2016-11-24 18:01), всего редактировалось 1 раз

28-11-2019 20:33  

Отключить всю рекламу на сайте

23-11-2016 18:08 Жизнь других Скачать торрент  

x264 [info]: frame I:1367 Avg QP:18.19 size:187822
x264 [info]: frame P:41106 Avg QP:20.66 size: 94952
x264 [info]: frame B:155672 Avg QP:22.86 size: 44335pb.wtf



    Дорогой пользователь! Огромная просьба, поблагодарите релизера, оцените раздачу и оставьте свои комментарий, если Вы скачали Жизнь других через торрент бесплатно! Внесите свою лепту в развитие PiratBit!
    Комментировать посты могут только пользователи прошедшие не сложную регистрацию
    Показать сообщения:    

    Жизнь других через торрент
    Скачать бесплатно Жизнь других
    Жизнь других скачать торрент
    Жизнь других смотреть онлайн
    Cкачать фильм Жизнь других бесплатно
    Жизнь других скачать торрент в хорошем качестве
    Жизнь других смотреть онлайн бесплатно в хорошем качестве


    Вы не можете начинать темы
    Вы не можете отвечать на сообщения
    Вы не можете редактировать свои сообщения
    Вы не можете удалять свои сообщения
    Вы не можете голосовать в опросах
    Вы не можете прикреплять файлы к сообщениям
    Вы можете скачивать файлы