Ссылка на приватное зеркало нашего сайта всего за 1$. Внимание количество ограничено!!!

2 сезон

iTunes

1 сезон

1

iTunes

iTunes

iTunes

1 сезон

RePack

30

ИГРА 18+

pack

ВАЖНО

!!Акция!!

Alien_RageХит недели

RePack

MK11
pack

Забери бонус

RePack

jed

!!Акция!!

Alien_Rage

RePack

fifa19

RePack

Assassins Creed: Odyssey

RePack

NEED FOR SPEED™ PAYBACK

4 сезон

9 сезон

Бесстыжие 9 сезон

Все сериалы

все сериалы на PB.wtf

RePack

FAR CRY 5
  

Вернувшиеся / Les revenants (Робан Кампийо) [2004, фэнтези, драма, BDRip 720p by msltel] MVO pb.wtf

Вернувшиеся через торрент pb.wtf

Размер: 3.13 GB | Добавлен: 3 года 11 мес. назад | Торрент скачан:132 раза
Скачать  

24-11-2016 07:47 Вернувшиеся Скачать торрент  

Название: Вернувшиеся
Оригинальное название: Les revenants
Год выпуска: 2004
Страна: Франция
Жанр: фэнтези, драма
Продолжительность: 01:41:53
Перевод: профессиональный многоголосый

Режиссёр: Робан Кампийо

В ролях: Жеральдин Пайя, Жонатан Заккаи, Фредерик Пьеро, Виктор Гарривье, Катрин Сами, Джамел Барек, Мари Матерон, Гай Херберт, Катрин Сальвини

Описание: Жизнь в небольшом французском городке кардинально меняется после того, как тысячи недавно умерших возвращаются из могил к своим родным и на рабочие места. Мертвые не агрессивны, немного замедлены, но они ведут себя как люди, и живой части человечества надо найти решение этой проблемы. А мёртвые чего-то ждут...



Качество: BDRip 720p Сравнение с исходником
Формат: MKV
Видео: MPEG-4 AVC, 3500 Кбит/с, 1280x544, 25 кадра/с
Аудио 1: русский, AC3, 448 kbps, 6 ch, 48 kHz [профессиональный многоголосый, Омикрон]
Аудио 2: французский, AC3, 448 kbps, 6 ch, 48 kHz [оригинал]
Субтитры: русские
Имеются неименованные главы/чаптеры.
frame I:831 Avg QP:14.52 size: 99364
frame P:29275 Avg QP:15.56 size: 37690
frame B:122722 Avg QP:17.48 size: 12130
Общее
Уникальный идентификатор : 254310294673870430057576256899308532580 (0xBF52619437191D1BA52CB1A58AAB3364)
Полное имя : D:\Video\Вернувшиеся.2004.BDRip.720p by msltel.mkv
Формат : Matroska
Версия формата : Version 4 / Version 2
Размер файла : 3,13 Гбайт
Продолжительность : 1 ч. 41 м.
Общий поток : 4398 Кбит/сек
Название фильма : Rip by msltel
Дата кодирования : UTC 2016-11-23 14:25:14
Программа кодирования : mkvmerge v8.2.0 ('World of Adventure') 64bit
Библиотека кодирования : libebml v1.3.1 + libmatroska v1.4.2

Видео
Идентификатор : 1
Формат : AVC
Формат/Информация : Advanced Video Codec
Профиль формата : High@L4.1
Параметр CABAC формата : Да
Параметр ReFrames формата : 9 кадров
Идентификатор кодека : V_MPEG4/ISO/AVC
Продолжительность : 1 ч. 41 м.
Битрейт : 3500 Кбит/сек
Ширина : 1280 пикселей
Высота : 544 пикселя
Соотношение сторон : 2,35:1
Режим частоты кадров : Постоянный
Частота кадров : 25,000 кадров/сек
Цветовое пространство : YUV
Субдискретизация насыщенности : 4:2:0
Битовая глубина : 8 бит
Тип развёртки : Прогрессивная
Бит/(Пиксели*Кадры) : 0.201
Размер потока : 2,49 Гбайт (80%)
Библиотека кодирования : x264 core 146 r2538 121396c
Настройки программы : cabac=1 / ref=9 / deblock=1:-1:-1 / analyse=0x3:0x113 / me=umh / subme=9 / psy=1 / psy_rd=1.00:0.15 / mixed_ref=1 / me_range=32 / chroma_me=1 / trellis=1 / 8x8dct=1 / cqm=0 / deadzone=21,11 / fast_pskip=0 / chroma_qp_offset=-3 / threads=6 / lookahead_threads=1 / sliced_threads=0 / nr=0 / decimate=1 / interlaced=0 / bluray_compat=0 / constrained_intra=0 / bframes=7 / b_pyramid=2 / b_adapt=2 / b_bias=0 / direct=1 / weightb=1 / open_gop=0 / weightp=2 / keyint=250 / keyint_min=25 / scenecut=40 / intra_refresh=0 / rc_lookahead=40 / rc=crf / mbtree=0 / crf=18.0 / qcomp=0.60 / qpmin=0 / qpmax=69 / qpstep=4 / vbv_maxrate=50000 / vbv_bufsize=62500 / crf_max=0.0 / nal_hrd=none / filler=0 / ip_ratio=1.40 / pb_ratio=1.30 / aq=1:1.00
Язык : French
Default : Да
Forced : Нет

Аудио #1
Идентификатор : 2
Формат : AC-3
Формат/Информация : Audio Coding 3
Расширение режима : CM (complete main)
Параметр Endianness формата : Big
Идентификатор кодека : A_AC3
Продолжительность : 1 ч. 41 м.
Вид битрейта : Постоянный
Битрейт : 448 Кбит/сек
Каналы : 6 каналов
Расположение каналов : Front: L C R, Side: L R, LFE
Частота : 48,0 КГц
Частота кадров : 31,250 кадров/сек (1536 spf)
Метод сжатия : С потерями
Размер потока : 326 Мбайт (10%)
Заголовок : MVO (Омикрон)
Язык : Russian
Default : Да
Forced : Нет

Аудио #2
Идентификатор : 3
Формат : AC-3
Формат/Информация : Audio Coding 3
Расширение режима : CM (complete main)
Параметр Endianness формата : Big
Идентификатор кодека : A_AC3
Продолжительность : 1 ч. 41 м.
Вид битрейта : Постоянный
Битрейт : 448 Кбит/сек
Каналы : 6 каналов
Расположение каналов : Front: L C R, Side: L R, LFE
Частота : 48,0 КГц
Частота кадров : 31,250 кадров/сек (1536 spf)
Метод сжатия : С потерями
Размер потока : 326 Мбайт (10%)
Заголовок : original
Язык : French
Default : Нет
Forced : Нет

Текст
Идентификатор : 4
Формат : UTF-8
Идентификатор кодека : S_TEXT/UTF8
Идентификатор кодека/Информация : UTF-8 Plain Text
Продолжительность : 1 ч. 31 м.
Битрейт : 57 бит/сек
Count of elements : 716
Размер потока : 38,7 Кбайт (0%)
Заголовок : русские
Язык : Russian
Default : Нет
Forced : Нет

Меню
00:00:00.000 : :Chapter 01
00:12:17.599 : :Chapter 02
00:25:20.639 : :Chapter 03
00:37:31.160 : :Chapter 04
00:51:07.440 : :Chapter 05
01:04:35.800 : :Chapter 06
01:16:28.720 : :Chapter 07
01:28:51.800 : :Chapter 08

МОИ РЕЛИЗЫ
ВКОНТАКТЕ
pb.wtf



Скачать Вернувшиеся через торрент http://i079.radikal.ru/1611/bc/c4492b65b2dd.jpg Скачать фильм Вернувшиеся через торрент бесплантно в хорошем качестве Описание: Жизнь в небольшом французском городке кардинально меняется после того, как тысячи недавно умерших возвращаются из могил к своим ... 10 10 3
Info! Золотая раздача, скачанное не засчитывается.
Торрент: Зарегистрирован [2016-11-24 07:47] · скачан: 132 раз
Статус: √ проверено
Размер: 3.13 GB
Как cкачать? Как скачать Вернувшиеся через торрент | qTorrent

% Раздел Тема Автор DL S | L
Фильмы 2001-2005 [ 1.46 GB ] Вернувшиеся / Les revenants [2004 BDRip] MVO [Омикрон] bober100 Скачать
1 | 0
Фильмы [HD 720p, 1080p] (Хороший звук DUB, MVO) [ 8.15 GB ] Вернувшиеся / Les revenants [2004 BDRip 1080p by msltel] MVO msltel Скачать
1 | 0

28-11-2019 20:33  

Отключить всю рекламу на сайте

24-11-2016 18:43 Вернувшиеся Скачать торрент  

как фильм?pb.wtf



24-11-2016 19:03 Вернувшиеся Скачать торрент  

нуб писал(а):

как фильм?

А мы глянем. А мы заценим.pb.wtf



    Дорогой пользователь! Огромная просьба, поблагодарите релизера, оцените раздачу и оставьте свои комментарий, если Вы скачали Вернувшиеся через торрент бесплатно! Внесите свою лепту в развитие PiratBit!
    Комментировать посты могут только пользователи прошедшие не сложную регистрацию
    Показать сообщения:    

    Вернувшиеся через торрент
    Скачать бесплатно Вернувшиеся
    Вернувшиеся скачать торрент
    Вернувшиеся смотреть онлайн
    Cкачать фильм Вернувшиеся бесплатно
    Вернувшиеся скачать торрент в хорошем качестве
    Вернувшиеся смотреть онлайн бесплатно в хорошем качестве


    Вы не можете начинать темы
    Вы не можете отвечать на сообщения
    Вы не можете редактировать свои сообщения
    Вы не можете удалять свои сообщения
    Вы не можете голосовать в опросах
    Вы не можете прикреплять файлы к сообщениям
    Вы можете скачивать файлы