Ссылка на приватное зеркало нашего сайта всего за 1$. Внимание количество ограничено!!!

2 сезон

iTunes

1 сезон

1

2 сезон

2 сезон

iTunes

1 сезон

RePack

30

Ultimate

ВАЖНО

ИГРА 18+

pack

RePack

MK11
pack

Забери бонус

RePack

jed

!!Акция!!

Alien_Rage

RePack

fifa19

RePack

Assassins Creed: Odyssey

RePack

NEED FOR SPEED™ PAYBACK

4 сезон

9 сезон

Бесстыжие 9 сезон

Все сериалы

все сериалы на PB.wtf

RePack

FAR CRY 5
  

Jorn - Heavy Rock Radio - 2016/ FLAC/ image +.cue/ lossless/ Hard & Heavy pb.wtf

Jorn - Heavy Rock Radio - 2016 через торрент pb.wtf

Размер: 429 MB | Добавлен: 4 года назад | Торрент скачан:21 раз
Скачать  

24-11-2016 15:37 Jorn - Heavy Rock Radio - 2016 Скачать торрент  


Jorn - Heavy Rock Radio


Год издания: 2016
Страна: Norway
Жанр: Hard $ Heavy
Продолжительность: 00:57:35
Лейбл издания: Frontiers Records
Страна-выпуска диска: Italy
Номер по каталогу: FRCD742
Формат: FLAC
Битрейт аудио: Lossless
Тип рипа: image +.cue
Наличие сканов в содержимом раздачи: да


01.I know there`s something going on(4:58)
02.Running up that hill(5:05)
03.Rev on the red line(3:56)
04.You`re the voice(5:03)
05.Live to win(3:53)
06.Don`t stop believing(4:42)
07.Killer Queen(3:28)
08.Hotel California(6:31)
09.Rainbow in the dark(5:00)
10.The Final Frontier(5:52)
11.Stormbringer(3:56)
12.Die Young(5:11)

Exact Audio Copy V1.0 beta 4 from 7. December 2014

EAC extraction logfile from 3. June 2016, 20:01

Jorn / Heavy Rock Radio

Used drive : HL-DT-STDVDRAM GU40N Adapter: 0 ID: 1

Read mode : Secure
Utilize accurate stream : Yes
Defeat audio cache : Yes
Make use of C2 pointers : No

Read offset correction : 103
Overread into Lead-In and Lead-Out : No
Fill up missing offset samples with silence : Yes
Delete leading and trailing silent blocks : No
Null samples used in CRC calculations : Yes
Used interface : Installed external ASPI interface

Used output format : User Defined Encoder
Selected bitrate : 1024 kBit/s
Quality : High
Add ID3 tag : No
Command line compressor : C:\Program Files (x86)\AudioConverter\AudioConverter.exe
Additional command line options : FLAC

TOC of the extracted CD

Track | Start | Length | Start sector | End sector
---------------------------------------------------------
1 | 0:00.00 | 4:57.57 | 0 | 22331
2 | 4:57.57 | 5:04.56 | 22332 | 45187
3 | 10:02.38 | 3:56.05 | 45188 | 62892
4 | 13:58.43 | 5:02.39 | 62893 | 85581
5 | 19:01.07 | 3:53.37 | 85582 | 103093
6 | 22:54.44 | 4:41.72 | 103094 | 124240
7 | 27:36.41 | 3:27.39 | 124241 | 139804
8 | 31:04.05 | 6:31.10 | 139805 | 169139
9 | 37:35.15 | 5:00.17 | 169140 | 191656
10 | 42:35.32 | 5:52.13 | 191657 | 218069
11 | 48:27.45 | 3:56.20 | 218070 | 235789
12 | 52:23.65 | 5:10.72 | 235790 | 259111

Range status and errors

Selected range

Filename C:\Users\workutagin\Desktop\Jorn - Heavy Rock Radio 2016\Jorn - Heavy Rock Radio.wav

Peak level 100.0 %
Extraction speed 2.1 X
Range quality 100.0 %
Test CRC 8B7CF3A0
Copy CRC 8B7CF3A0
Copy OK

No errors occurred

AccurateRip summary

Track 1 not present in database
Track 2 not present in database
Track 3 not present in database
Track 4 not present in database
Track 5 not present in database
Track 6 not present in database
Track 7 not present in database
Track 8 not present in database
Track 9 not present in database
Track 10 not present in database
Track 11 not present in database
Track 12 not present in database

None of the tracks are present in the AccurateRip database

End of status report
REM GENRE "Heavy Metal"
REM DATE 2016
REM DISCID B30D7E0C
REM COMMENT "ExactAudioCopy v1.0b4"
PERFORMER "Jorn"
TITLE "Heavy Rock Radio"
FILE "Jorn - Heavy Rock Radio.flac" WAVE
TRACK 01 AUDIO
TITLE "I know there`s something going on"
PERFORMER "Jorn"
INDEX 01 00:00:00
TRACK 02 AUDIO
TITLE "Running up that hill"
PERFORMER "Jorn"
INDEX 00 04:55:58
INDEX 01 04:57:57
TRACK 03 AUDIO
TITLE "Rev on the red line"
PERFORMER "Jorn"
INDEX 00 10:00:38
INDEX 01 10:02:38
TRACK 04 AUDIO
TITLE "You`re the voice"
PERFORMER "Jorn"
INDEX 00 13:56:43
INDEX 01 13:58:43
TRACK 05 AUDIO
TITLE "Live to win"
PERFORMER "Jorn"
INDEX 00 18:59:07
INDEX 01 19:01:07
TRACK 06 AUDIO
TITLE "Don`t stop believing"
PERFORMER "Jorn"
INDEX 00 22:52:44
INDEX 01 22:54:44
TRACK 07 AUDIO
TITLE "Killer Queen"
PERFORMER "Jorn"
INDEX 00 27:34:41
INDEX 01 27:36:41
TRACK 08 AUDIO
TITLE "Hotel California"
PERFORMER "Jorn"
INDEX 00 31:02:05
INDEX 01 31:04:05
TRACK 09 AUDIO
TITLE "Rainbow in the dark"
PERFORMER "Jorn"
INDEX 00 37:33:15
INDEX 01 37:35:15
TRACK 10 AUDIO
TITLE "The Final Frontier"
PERFORMER "Jorn"
INDEX 00 42:33:32
INDEX 01 42:35:32
TRACK 11 AUDIO
TITLE "Stormbringer"
PERFORMER "Jorn"
INDEX 00 48:25:45
INDEX 01 48:27:45
TRACK 12 AUDIO
TITLE "Die Young"
PERFORMER "Jorn"
INDEX 00 52:21:65
INDEX 01 52:23:65
Produced by Jorn Lande
Mixed by Trond Holter

Recorded at the Rock Ranch Studio, Norway

Band:
Jorn Lande - Vocals
Trond Holter - Guitar
Francesco Jovino - Drums
Thomas Bekkevold - Bass
Alessandro Del Vecchio - Keyboards

Keyboarrd on "Rainbow in the dark" by Lasse Jensen


pb.wtf



Скачать Jorn - Heavy Rock Radio - 2016 через торрент http://i84.fastpic.ru/big/2016/1124/c6/19264c7ad2f43fe8287339b4457a81c6.png Скачать фильм Jorn - Heavy Rock Radio - 2016через торрент бесплантно в хорошем качестве Трэклист I know there`s something going on(4:58) Running up that hill(5:05) Rev on the red line(3:56) You`re the voice(5:03) ... 10 10 1
Торрент: Зарегистрирован [2016-11-24 15:37] · скачан: 21 раз
Статус: √ проверено
Размер: 429 MB
Как cкачать? Как скачать Jorn - Heavy Rock Radio - 2016 через торрент | qTorrent

28-11-2019 20:33  

Отключить всю рекламу на сайте

    Дорогой пользователь! Огромная просьба, поблагодарите релизера, оцените раздачу и оставьте свои комментарий, если Вы скачали Jorn - Heavy Rock Radio - 2016 через торрент бесплатно! Внесите свою лепту в развитие PiratBit!
    Комментировать посты могут только пользователи прошедшие не сложную регистрацию
    Показать сообщения:    

    Jorn - Heavy Rock Radio - 2016 через торрент
    Скачать бесплатно Jorn - Heavy Rock Radio - 2016
    Jorn - Heavy Rock Radio - 2016 скачать торрент
    Jorn - Heavy Rock Radio - 2016 смотреть онлайн
    Cкачать фильм Jorn - Heavy Rock Radio - 2016 бесплатно
    Jorn - Heavy Rock Radio - 2016 скачать торрент в хорошем качестве
    Jorn - Heavy Rock Radio - 2016 смотреть онлайн бесплатно в хорошем качестве


    Вы не можете начинать темы
    Вы не можете отвечать на сообщения
    Вы не можете редактировать свои сообщения
    Вы не можете удалять свои сообщения
    Вы не можете голосовать в опросах
    Вы не можете прикреплять файлы к сообщениям
    Вы можете скачивать файлы