Anonymous, доброй ночи, присоединяйтесь к нам в Telegram!, здесь всегда актуальный адрес сайта, оперативная поддержка и многое другое!

>

5.6

iTunes

7.4

MVO

5.7

MVO

1

7.7

1 сезон

6.8

iTunes

7.3

1 сезон

13

6.7

1 сезон

8.3

RePack

30

ULTIMATE

pack

9.9

Лицензия

ВАЖНО

ИГРА 18+

pack

7.3

RePack

MK11

7.7

RePack

jed

7.8

RePack

fifa19

8.5

RePack

RDR2

RePack

NEED FOR SPEED™ PAYBACK

4 сезон

9 сезон

Бесстыжие 9 сезон

Все сериалы

все сериалы на PB.wtf

RePack

FAR CRY 5

Anonymous, доброй ночи, мы катастрофически не успеваем собрать деньги на оплату серверов, помогите нам пожалуйста 5,10,15р., для нас важна любая помощь . В качестве благодарности мы отключим Вам всю рекламу на сайте (укажите свой ник в строку Ваше имя)!

×
  
Magnet ссылка

СашаТаня / Сезон 3 / Серии 1-20 из 20 (Сергей Казачанский, Михаил Старчак, Андрей Богатырев) [2016, Россия, комедия, WEB-DL 720p) pb.wtf

СашаТаня через торрент pb.wtf

Размер: 11.4 GB | Добавлен: 4 года 10 мес. назад | Торрент скачан:188 раз
Смотреть онлайн СашаТаня | Скачать    Ребята, помогите собрать деньги на оплату серверов!!!

25-11-2016 00:16 СашаТаня Скачать торрент  

СашаТаня


  • Год выпуска: 2016
  • Страна: Россия
  • Жанр: комедия
  • Продолжительность: 00:23:18 (Серия)
  • Перевод: Не требуется [Русский]
  • Режиссер: Сергей Казачанский, Михаил Старчак, Андрей Богатырев
  • В ролях:

    Андрей Гайдулян (Саша), Валентина Рубцова (Таня), Алексей Климушкин (Сильвестр Андреевич Сергеев), Андрей Свиридов (Гена), Алексей Гаврилов (Гоша Рудковский), Лариса Баранова (Лиля Волкова), Виталий Гогунский, Арарат Кещян, Наталья Ходус, Виктор Полторацкий (финансовый директор Сергей Геннадьевич), Павел Кассинский (сосед), Александр Новик (менеджер)


  • Сериал про молодую семью Сергеевых. После окончания института Саша и Таня вместе со своим маленьким сыном Алёшкой решили пожить самостоятельно и сняли квартиру в Алтуфьево. Райончик конечно не из лучших, но зато и цены на жилье тут доступные, ведь Саша не собирается пользоваться миллиардами своего папы. Но Сильвестр Андреевич не собирается так просто отставать от молодых и тем более от своего внука. Поэтому он поселился по соседству, только в просторной и роскошной квартире.
  • Рейтинг:



  • Качество: WEB-DL 720p
  • Формат: :MKV
  • Видео кодек: AVC
  • Аудио кодек: AC3
  • Видео: 3581 Кбит/сек, 1280*720 (16:9), в 25,000 кадров/сек, AVC
  • Аудио: 192 Кбит/сек, 48,0 КГц, 2 канала, AC-3
  • Релиз от: Files-x

    Внимание! Раздача ведётся путём добавления новых серий; при каждом добавлении создаётся новый торрент. Чтобы начать докачку новой серии, пользователям необходимо сделать следующее:
    (1) остановить скачивание,
    (2) удалить старый торрент у себя из клиента (старые серии удалять не надо),
    (3) скачать новый торрент и запустить его у себя в клиенте вместо старого, при этом указать клиенту путь в старую папку куда и должно происходить скачивание новых серий.
    Ваш клиент при этом должен произвести хеширование (проверку) старой папки (если не производит сам - помогите ему сделать это), и будет докачивать только те серии которых у вас ещё нет. Старые серии при этом не удаляются, а продолжают раздаваться!
    Eсли вы уже удалили старые серии, то предотвратить повторную закачку старых серий можно, отжав галочку в соответствующих местах при запуске нового торрента. По возможности, желательно не удалять старые серии как можно дольше чтобы релизёр не столько продолжал раздавать старые серии, а смог сконцентрироваться на новых.

    Общее
    Уникальный идентификатор : 213436134649562004736353161122286408499 (0xA0924DE62F3731A2AE1C93CD3E5C1333)
    Полное имя : K:\СашаТаня-3.2016.WEB-DL720.Files-x\01.СашаТаня-3.2016.WEB-DL720.Files-x.mkv
    Формат : Matroska
    Версия формата : Version 4 / Version 2
    Размер файла : 567 Мбайт
    Продолжительность : 21 м.
    Общий поток : 3767 Кбит/сек
    Дата кодирования : UTC 2016-11-15 20:35:32
    Программа кодирования : mkvmerge v9.1.0 ('Little Earthquakes') 64bit
    Библиотека кодирования : libebml v1.3.3 + libmatroska v1.4.4

    Видео
    Идентификатор : 1
    Формат : AVC
    Формат/Информация : Advanced Video Codec
    Профиль формата : High@L3.1
    Параметр CABAC формата : Да
    Параметр ReFrames формата : 1 кадр
    Параметр GOP формата : M=1, N=12
    Идентификатор кодека : V_MPEG4/ISO/AVC
    Продолжительность : 20 м.
    Битрейт : 3581 Кбит/сек
    Ширина : 1280 пикселей
    Высота : 720 пикселей
    Соотношение сторон : 16:9
    Режим частоты кадров : Постоянный
    Частота кадров : 25,000 кадров/сек
    Стандарт вещания : Component
    Цветовое пространство : YUV
    Субдискретизация насыщенности : 4:2:0
    Битовая глубина : 8 бит
    Тип развёртки : Прогрессивная
    Бит/(Пиксели*Кадры) : 0.155
    Размер потока : 537 Мбайт (95%)
    Default : Да
    Forced : Нет
    Цветовой диапазон : Limited

    Аудио
    Идентификатор : 2
    Формат : AC-3
    Формат/Информация : Audio Coding 3
    Расширение режима : CM (complete main)
    Параметр Endianness формата : Big
    Идентификатор кодека : A_AC3
    Продолжительность : 21 м.
    Вид битрейта : Постоянный
    Битрейт : 192 Кбит/сек
    Каналы : 2 канала
    Расположение каналов : Front: L R
    Частота : 48,0 КГц
    Частота кадров : 31,250 кадров/сек (1536 spf)
    Метод сжатия : С потерями
    Размер потока : 28,9 Мбайт (5%)
    Default : Да
    Forced : Нет

    Скриншоты:
    скриншот   скриншот   скриншот   скриншот   скриншот   скриншот   скриншот  
    скриншот  

    Раздача ведётся путём добавления новых серий. Добавлена 20 серия (16.12.2016).Просьба перекачать торрент файл.

    pb.wtf



  • Скачать СашаТаня через торрент http://i83.fastpic.ru/big/2016/1114/02/ea889c67b68a03f20b0500f01201d802.jpg Скачать, смотреть онлайн СашаТаня бесплантно в хорошем качестве qw.png Сериал про молодую семью Сергеевых. После окончания института Саша и Таня вместе со своим маленьким сыном Алёшкой решили пожить ... 9.4 10 15
    Info! Золотая раздача, скачанное не засчитывается.
    Торрент: Зарегистрирован [2016-12-16 00:17] · скачан: 188 раз
    Статус: √ проверено
    Размер: 11.4 GB
    Как cкачать? Как скачать СашаТаня через торрент | UTorrent

    % Раздел Тема Автор DL S | L
    TNT serials [ 6.38 GB ] СашаТаня / Сезон: 3-4 / Серии 1-22 из 40 [2016 Россия SATRip) GEKADOL Скачать
    1 | 0
    TNT serials [ 4.31 GB ] СашаТаня / Сезон: 3 / Серии 1-15 из 16 [2015 Россия SATRip) GEKADOL Скачать
    1 | 0

    28-11-2019 20:33  

    Отключить всю рекламу на сайте

      Дорогой пользователь! Огромная просьба, поблагодарите релизера, оцените раздачу и оставьте свои комментарий, если Вы скачали СашаТаня через торрент бесплатно!
      Комментировать посты могут только пользователи прошедшие не сложную регистрацию
      Показать сообщения:    

      СашаТаня через торрент
      Скачать бесплатно СашаТаня
      СашаТаня скачать торрент
      СашаТаня смотреть онлайн
      Cкачать фильм СашаТаня бесплатно
      СашаТаня скачать торрент в хорошем качестве
      СашаТаня смотреть онлайн бесплатно в хорошем качестве


      Вы не можете начинать темы
      Вы не можете отвечать на сообщения
      Вы не можете редактировать свои сообщения
      Вы не можете удалять свои сообщения
      Вы не можете голосовать в опросах
      Вы не можете прикреплять файлы к сообщениям
      Вы можете скачивать файлы