Всегда рабочее зеркало без VPN и Proxy просто перед .vidak.icu напиши любое слово или цифру, Пример http://2g5.vidak.icu

>

7.4

iTunes

7.4

2 сезон

6.6

iTunes

1

7.4

2 сезон

7.2

iTunes

6.0

MVO

13

6.1

iTunes

8.3

Пиратка

30

ULTIMATE

pack

9.9

Лицензия

ВАЖНО

ИГРА 18+

pack

7.3

RePack

MK11

7.7

RePack

jed

7.8

RePack

fifa19

8.5

RePack

RDR2

RePack

NEED FOR SPEED™ PAYBACK

1 сезон

9 сезон

Бесстыжие 9 сезон

Все сериалы

все сериалы на PB.wtf

RePack

FAR CRY 5

Anonymous, добрый день, мы катастрофически не успеваем собрать деньги на оплату серверов, помогите нам пожалуйста 5,10,15р., для нас важна любая помощь . В качестве благодарности мы отключим Вам всю рекламу на сайте (укажите свой ник в строку Ваше имя)!

×
  
Magnet ссылка

Проклятое дитя / Manhattan Baby (Лучио Фульчи) [1982, ужасы, BDRip 720p by msltel] AVO pb.wtf

Проклятое дитя через торрент pb.wtf

Размер: 3.01 GB | Добавлен: 5 лет 2 мес. назад | Торрент скачан:4 раза
Смотреть онлайн Проклятое дитя | Скачать    Ребята, помогите собрать деньги на оплату серверов!!!

25-11-2016 07:17 Проклятое дитя Скачать торрент  

Название: Проклятое дитя
Оригинальное название: Manhattan Baby
Год выпуска: 1982
Страна: Италия
Жанр: ужасы
Продолжительность: 01:28:58
Перевод: авторский

Режиссёр: Лучио Фульчи

В ролях: Кристофер Коннелли, Лаура Ленци, Бригитта Бокколи, Джованни Фрезза, Чинция Де Понти, Косимо Чиньери, Андреа Босич, Карло Де Мейо, Энцо Марино Беланич, Марио Моретти

Описание: Археолог Джордж Хэкер отправляется на пустынные раскопки в Египет в компании супруги Эмили и десятилетней дочери Сюзи. Здесь, осматривая с матерью египетские достопримечательности, Сюзи встречает зловещую слепую женщину, которая дарит ей странный медальон в виде глаза, а сам Джордж, во время осмотра ранее не исследованной гробницы, мистическим образом теряет зрение. По возвращении в Нью-Йорк родители замечают, что Сюзи, а затем и её брат Томми резко изменились, стали странно себя вести; в доме начали твориться сверхъестественные вещи. Посчитав, что всё это может быть связано с инцидентом в Египте, Джордж советуется с коллегой-египтологом и узнаёт, что во вскрытой гробнице мог быть заключён злобный дух, вырвавшийся на свободу и подчинивший себе детей...



Качество: BDRip 720p Сравнение с исходником
Формат: MKV
Видео: MPEG-4 AVC, 4204 Кбит/с, 1280x536, 23,976 кадра/с
Аудио 1: русский, AC3, 192 kbps, 2 ch, 48 kHz [авторский, Юрий Живов]
Аудио 2: английский, AC3, 448 kbps, 6 ch, 48 kHz [оригинал]
Субтитры: английские
Имеются неименованные главы/чаптеры.
Общее
Уникальный идентификатор : 197144731254843864349557388201779598655 (0x9450B1B28417C49CB473D41C7365153F)
Полное имя : D:\Video\Проклятое дитя.1982.BDRip.720p by msltel.mkv
Формат : Matroska
Версия формата : Version 4 / Version 2
Размер файла : 3,01 Гбайт
Продолжительность : 1 ч. 28 м.
Общий поток : 4846 Кбит/сек
Дата кодирования : UTC 2016-11-25 02:53:54
Программа кодирования : mkvmerge v8.2.0 ('World of Adventure') 64bit
Библиотека кодирования : libebml v1.3.1 + libmatroska v1.4.2

Видео
Идентификатор : 1
Формат : AVC
Формат/Информация : Advanced Video Codec
Профиль формата : High@L4.1
Параметр CABAC формата : Да
Параметр ReFrames формата : 9 кадров
Идентификатор кодека : V_MPEG4/ISO/AVC
Продолжительность : 1 ч. 28 м.
Битрейт : 4204 Кбит/сек
Ширина : 1280 пикселей
Высота : 536 пикселей
Соотношение сторон : 2,40:1
Режим частоты кадров : Постоянный
Частота кадров : 23,976 (24000/1001) кадра/сек
Цветовое пространство : YUV
Субдискретизация насыщенности : 4:2:0
Битовая глубина : 8 бит
Тип развёртки : Прогрессивная
Бит/(Пиксели*Кадры) : 0.256
Размер потока : 2,61 Гбайт (87%)
Заголовок : Rip by msltel
Библиотека кодирования : x264 core 146 r2538 121396c
Настройки программы : cabac=1 / ref=9 / deblock=1:-3:-3 / analyse=0x3:0x113 / me=umh / subme=9 / psy=1 / psy_rd=1.00:0.15 / mixed_ref=1 / me_range=32 / chroma_me=1 / trellis=1 / 8x8dct=1 / cqm=0 / deadzone=21,11 / fast_pskip=0 / chroma_qp_offset=-3 / threads=6 / lookahead_threads=1 / sliced_threads=0 / nr=0 / decimate=1 / interlaced=0 / bluray_compat=0 / constrained_intra=0 / bframes=11 / b_pyramid=2 / b_adapt=2 / b_bias=0 / direct=1 / weightb=1 / open_gop=0 / weightp=2 / keyint=230 / keyint_min=23 / scenecut=40 / intra_refresh=0 / rc_lookahead=40 / rc=crf / mbtree=0 / crf=20.0 / qcomp=0.60 / qpmin=0 / qpmax=69 / qpstep=4 / vbv_maxrate=50000 / vbv_bufsize=62500 / crf_max=0.0 / nal_hrd=none / filler=0 / ip_ratio=1.40 / pb_ratio=1.30 / aq=1:1.00
Язык : English
Default : Да
Forced : Нет

Аудио #1
Идентификатор : 2
Формат : AC-3
Формат/Информация : Audio Coding 3
Расширение режима : CM (complete main)
Параметр Endianness формата : Big
Идентификатор кодека : A_AC3
Продолжительность : 1 ч. 28 м.
Вид битрейта : Постоянный
Битрейт : 192 Кбит/сек
Каналы : 2 канала
Расположение каналов : Front: L R
Частота : 48,0 КГц
Частота кадров : 31,250 кадров/сек (1536 spf)
Метод сжатия : С потерями
Размер потока : 122 Мбайт (4%)
Заголовок : AVO (Юрий Живов)
Язык : Russian
Default : Да
Forced : Нет

Аудио #2
Идентификатор : 3
Формат : AC-3
Формат/Информация : Audio Coding 3
Расширение режима : CM (complete main)
Параметр Endianness формата : Big
Идентификатор кодека : A_AC3
Продолжительность : 1 ч. 28 м.
Вид битрейта : Постоянный
Битрейт : 448 Кбит/сек
Каналы : 6 каналов
Расположение каналов : Front: L C R, Side: L R, LFE
Частота : 48,0 КГц
Частота кадров : 31,250 кадров/сек (1536 spf)
Метод сжатия : С потерями
Размер потока : 285 Мбайт (9%)
Заголовок : original
Язык : English
Default : Нет
Forced : Нет

Текст
Идентификатор : 4
Формат : UTF-8
Идентификатор кодека : S_TEXT/UTF8
Идентификатор кодека/Информация : UTF-8 Plain Text
Продолжительность : 1 ч. 26 м.
Битрейт : 29 бит/сек
Count of elements : 650
Размер потока : 18,5 Кбайт (0%)
Заголовок : английские (для слабослышащих)
Язык : English
Default : Нет
Forced : Нет

Меню
00:00:00.000 : :Chapter 01
00:05:00.000 : :Chapter 02
00:10:00.000 : :Chapter 03
00:15:00.000 : :Chapter 04
00:20:00.000 : :Chapter 05
00:25:00.000 : :Chapter 06
00:30:00.000 : :Chapter 07
00:35:00.000 : :Chapter 08
00:40:00.000 : :Chapter 09
00:45:00.000 : :Chapter 10
00:50:00.000 : :Chapter 11
00:55:00.000 : :Chapter 12
01:00:00.000 : :Chapter 13
01:05:00.000 : :Chapter 14
01:10:00.000 : :Chapter 15
01:15:00.000 : :Chapter 16
01:20:00.000 : :Chapter 17
01:25:00.000 : :Chapter 18

МОИ РЕЛИЗЫ
ВКОНТАКТЕ
pb.wtf



Скачать Проклятое дитя через торрент http://i079.radikal.ru/1611/03/9c314a9dfb13.jpg Скачать, смотреть онлайн Проклятое дитя бесплантно в хорошем качестве Описание: Археолог Джордж Хэкер отправляется на пустынные раскопки в Египет в компании супруги Эмили и десятилетней дочери Сюзи. Здесь, ... 10 10 1
Info! Золотая раздача, скачанное не засчитывается.
Торрент: Зарегистрирован [2016-11-25 07:17] · скачан: 4 раз
Статус: √ проверено
Размер: 3.01 GB
Как cкачать? Как скачать Проклятое дитя через торрент | UTorrent

% Раздел Тема Автор DL S | L
Фильмы с авторской озвучкой [ 9.42 GB ] Проклятое дитя / Manhattan Baby [1982 BDRip 1080p by msltel] AVO msltel Скачать
1 | 0

28-11-2019 20:33  

Отключить всю рекламу на сайте

    Дорогой пользователь! Огромная просьба, поблагодарите релизера, оцените раздачу и оставьте свои комментарий, если Вы скачали Проклятое дитя через торрент бесплатно!
    Комментировать посты могут только пользователи прошедшие не сложную регистрацию
    Показать сообщения:    

    Проклятое дитя через торрент
    Скачать бесплатно Проклятое дитя
    Проклятое дитя скачать торрент
    Проклятое дитя смотреть онлайн
    Cкачать фильм Проклятое дитя бесплатно
    Проклятое дитя скачать торрент в хорошем качестве
    Проклятое дитя смотреть онлайн бесплатно в хорошем качестве


    Вы не можете начинать темы
    Вы не можете отвечать на сообщения
    Вы не можете редактировать свои сообщения
    Вы не можете удалять свои сообщения
    Вы не можете голосовать в опросах
    Вы не можете прикреплять файлы к сообщениям
    Вы можете скачивать файлы