Ссылка на приватное зеркало нашего сайта всего за 1$. Внимание количество ограничено!!!

2 сезон

iTunes

1 сезон

1

iTunes

iTunes

iTunes

1 сезон

RePack

30

ИГРА 18+

pack

ВАЖНО

!!Акция!!

Alien_RageХит недели

RePack

MK11
pack

Забери бонус

RePack

jed

!!Акция!!

Alien_Rage

RePack

fifa19

RePack

Assassins Creed: Odyssey

RePack

NEED FOR SPEED™ PAYBACK

4 сезон

9 сезон

Бесстыжие 9 сезон

Все сериалы

все сериалы на PB.wtf

RePack

FAR CRY 5
  

Однажды в Риме / When in Rome (Марк Стивен Джонсон) [2010 г., мелодрама, комедия, BDRip-AVC] DUB pb.wtf

Однажды в Риме через торрент pb.wtf

Размер: 2.18 GB | Добавлен: 3 года 11 мес. назад | Торрент скачан:18 раз
Скачать  

25-11-2016 10:20 Однажды в Риме Скачать торрент  

Однажды в Риме / When in Rome
Год выпуска: 2010
Страна: США
Жанр: мелодрама, комедия
Продолжительность: 01:30:47
Перевод: Профессиональный (полное дублирование)
Субтитры: Английские, Русские (надписи и пр.), Русские

Режиссер: Марк Стивен Джонсон

rating

В ролях:

Кристен Белл, Джош Дюамель, Анжелика Хьюстон, Дэнни Де Вито, Уилл Арнетт, Джон Хедер, Дакс Шепард, Алексис Дзена, Кейт Микуччи, Пегги Липтон, Люка Кальвани, Кир О'Доннелл, Кристен Шаал, Юри Антонозанте

Описание:

Бетти живёт в Нью-Йорке и абсолютно не верит в романтику.
Но однажды её младшая сестра приглашает Бетти на свою свадьбу – в старинном палаццо в самом сердце вечного города, Рима. По воле случая, как раз напротив оказывается легендарный Fantana D`Amore, фонтан, куда туристы со всего света бросают монетки, загадывая удачу в любви.
Отчаянная девушка похищает из фонтана несколько монет, но она не знает, что из-за древней магии хозяева этих монеток превращаются в её отчаянных воздыхателей, которые последуют за ней через океан, настойчиво предлагая руку и сердце.
Сумеет ли Бетти избавиться от назойливых поклонников и найти свою настоящую любовь?
«Все дороги ведут в Рим. Поиски любви ведут туда же...» Качество: BDRip-AVC
Формат: MKV
Видео кодек: H.264
Аудио кодек: AC3

Видео: 1104x460 (2.40:1), 23,976 fps, AVC MPEG-4 (x264), High@L4.1, 2610 Кbps avg, 0.214 bit/pixel
Аудио#1: Русский: 48 kHz, AC3 Dolby Digital, 3/2 (L,C,R,l,r) + LFE ch, ~384 kbps Профессиональный (полное дублирование)
Аудио#2: Английский: 48 kHz, AC3 Dolby Digital, 3/2 (L,C,R,l,r) + LFE ch, ~448 kbps Оригинал

(Исходник: BD-Remux)
Общее
Уникальный идентификатор : 192812857128345700402101375173929834519 (0x910E67D0334467B29D2506F2D0A99817)
Полное имя : C:\When.In.Rome.2010.DUAL.BDRip-AVC.AC3.mkv
Формат : Matroska
Версия формата : Version 2
Размер файла : 2,18 Гбайт
Продолжительность : 1 ч. 30 м.
Общий поток : 3438 Кбит/сек
Дата кодирования : UTC 2010-06-15 23:56:32
Программа кодирования : mkvmerge v3.2.0 ('Beginnings') built on Feb 12 2010 16:46:17
Библиотека кодирования : libebml v0.7.9 + libmatroska v0.8.1

Видео
Идентификатор : 1
Формат : AVC
Формат/Информация : Advanced Video Codec
Профиль формата : Main@L4.1
Параметр CABAC формата : Да
Параметр ReFrames формата : 11 кадров
Идентификатор кодека : V_MPEG4/ISO/AVC
Продолжительность : 1 ч. 30 м.
Битрейт : 2610 Кбит/сек
Ширина : 1104 пикселя
Высота : 460 пикселей
Соотношение сторон : 2,40:1
Режим частоты кадров : Постоянный
Частота кадров : 23,976 (24000/1001) кадра/сек
Цветовое пространство : YUV
Субдискретизация насыщенности : 4:2:0
Битовая глубина : 8 бит
Тип развёртки : Прогрессивная
Бит/(Пиксели*Кадры) : 0.214
Размер потока : 1,61 Гбайт (74%)
Библиотека кодирования : x264 core 94 r1583 7608d73
Настройки программы : cabac=1 / ref=11 / deblock=1:-2:-1 / analyse=0x1:0x131 / me=umh / subme=10 / psy=1 / psy_rd=1.20:0.20 / mixed_ref=0 / me_range=32 / chroma_me=1 / trellis=2 / 8x8dct=0 / cqm=0 / deadzone=21,11 / fast_pskip=0 / chroma_qp_offset=-3 / threads=3 / sliced_threads=0 / nr=0 / decimate=0 / interlaced=0 / constrained_intra=0 / bframes=11 / b_pyramid=2 / b_adapt=2 / b_bias=0 / direct=3 / weightb=1 / weightp=2 / keyint=250 / keyint_min=25 / scenecut=40 / intra_refresh=0 / rc=2pass / mbtree=0 / bitrate=2610 / ratetol=1.0 / qcomp=0.60 / qpmin=10 / qpmax=51 / qpstep=4 / cplxblur=20.0 / qblur=0.5 / ip_ratio=1.40 / pb_ratio=1.30 / aq=1:0.80
Язык : English
Default : Нет
Forced : Нет

Аудио #1
Идентификатор : 2
Формат : AC-3
Формат/Информация : Audio Coding 3
Расширение режима : CM (complete main)
Параметр Endianness формата : Big
Идентификатор кодека : A_AC3
Продолжительность : 1 ч. 30 м.
Вид битрейта : Постоянный
Битрейт : 384 Кбит/сек
Каналы : 6 каналов
Расположение каналов : Front: L C R, Side: L R, LFE
Частота : 48,0 КГц
Частота кадров : 31,250 кадров/сек (1536 spf)
Битовая глубина : 16 бит
Метод сжатия : С потерями
Размер потока : 249 Мбайт (11%)
Заголовок : Дублированный перевод
Язык : Russian
Default : Да
Forced : Нет

Аудио #2
Идентификатор : 3
Формат : AC-3
Формат/Информация : Audio Coding 3
Расширение режима : CM (complete main)
Параметр Endianness формата : Big
Идентификатор кодека : A_AC3
Продолжительность : 1 ч. 30 м.
Вид битрейта : Постоянный
Битрейт : 448 Кбит/сек
Каналы : 6 каналов
Расположение каналов : Front: L C R, Side: L R, LFE
Частота : 48,0 КГц
Частота кадров : 31,250 кадров/сек (1536 spf)
Битовая глубина : 16 бит
Метод сжатия : С потерями
Размер потока : 291 Мбайт (13%)
Заголовок : Оригинал
Язык : English
Default : Нет
Forced : Нет

Текст #1
Идентификатор : 4
Формат : UTF-8
Идентификатор кодека : S_TEXT/UTF8
Идентификатор кодека/Информация : UTF-8 Plain Text
Заголовок : Субтитры #1
Язык : English
Default : Нет
Forced : Нет

Текст #2
Идентификатор : 5
Формат : UTF-8
Идентификатор кодека : S_TEXT/UTF8
Идентификатор кодека/Информация : UTF-8 Plain Text
Заголовок : Субтитры #2 (надписи и пр.)
Язык : Russian
Default : Да
Forced : Нет

Текст #3
Идентификатор : 6
Формат : UTF-8
Идентификатор кодека : S_TEXT/UTF8
Идентификатор кодека/Информация : UTF-8 Plain Text
Заголовок : Субтитры #3
Язык : Russian
Default : Нет
Forced : Нет

Меню
00:00:00.000 : en:Opening Credits / Beth's Big Event
00:05:10.059 : en:Joan's Getting Married
00:10:57.198 : en:A Wedding in Rome
00:14:36.333 : en:Beth Makes a Speech
00:18:48.585 : en:The Wedding Dance
00:22:39.232 : en:In the Fountain of Love
00:26:50.525 : en:Beth Returns Home
00:28:57.277 : en:The Coins in New York
00:35:16.197 : en:Front Page News
00:40:14.954 : en:Beth on the Run
00:44:20.908 : en:Recon on Beth
00:49:15.744 : en:Nick Gets a Date
00:54:26.012 : en:Safe at the Museum
00:59:52.088 : en:Breaking the Spells
01:05:51.947 : en:Driving the Gridlock
01:09:47.641 : en:Returning the Coins
01:14:57.242 : en:The Last Coin
01:17:27.726 : en:Another Wedding
01:22:09.090 : en:Beth Objects
01:24:36.488 : en:The End / End Credits
скриншот  скриншот  скриншот  скриншот  
pb.wtf



Скачать Однажды в Риме через торрент http://s014.radikal.ru/i327/1611/9a/3c674c98f781.jpg Скачать фильм Однажды в Риме через торрент бесплантно в хорошем качестве Описание: Бетти живёт в Нью-Йорке и абсолютно не верит в романтику. Но однажды её младшая сестра приглашает Бетти на свою свадьбу – в ... 10 10 6
Торрент: Зарегистрирован [2016-11-25 10:20] · скачан: 18 раз
Статус: √ проверено
Размер: 2.18 GB
Как cкачать? Как скачать Однажды в Риме через торрент | qTorrent

28-11-2019 20:33  

Отключить всю рекламу на сайте

    Дорогой пользователь! Огромная просьба, поблагодарите релизера, оцените раздачу и оставьте свои комментарий, если Вы скачали Однажды в Риме через торрент бесплатно! Внесите свою лепту в развитие PiratBit!
    Комментировать посты могут только пользователи прошедшие не сложную регистрацию
    Показать сообщения:    

    Однажды в Риме через торрент
    Скачать бесплатно Однажды в Риме
    Однажды в Риме скачать торрент
    Однажды в Риме смотреть онлайн
    Cкачать фильм Однажды в Риме бесплатно
    Однажды в Риме скачать торрент в хорошем качестве
    Однажды в Риме смотреть онлайн бесплатно в хорошем качестве


    Вы не можете начинать темы
    Вы не можете отвечать на сообщения
    Вы не можете редактировать свои сообщения
    Вы не можете удалять свои сообщения
    Вы не можете голосовать в опросах
    Вы не можете прикреплять файлы к сообщениям
    Вы можете скачивать файлы