новый адрес
Мега распродажа FORZA HORIZON 4 ULTIMATE+ВСЕ DLC+ОНЛАЙН всего за 499р. 349 руб. (супер цена). Внимание количество ограничено!!!

iTunes

1+1

iTunes

мы

iTunes

1

iTunes

Чернобыль

iTunes

Ральф против интернета

Лицензия

ПШазам

Лицензия

Оно 2

Лицензия

30
pack

ВАЖНО

!!Акция!!

Alien_RageХит недели

RePack

Resident Evil 21

ИГРА 18+

pack

RePack

jed

!!Акция!!

Alien_Rage

RePack

fifa19

RePack

Assassins Creed: Odyssey

RePack

NEED FOR SPEED™ PAYBACK

3 сезон

9 сезон

Бесстыжие 9 сезон

Все сериалы

все сериалы на PB.wtf

RePack

FAR CRY 5
Ребята, катастрофически не хватает 1900р. для оплаты серверов за Октябрь (всвязи с блокировками трафик упал в 3 раза), 1-2р., выручайте.
  

Мимино (Георгий Данелия) [1977 г., комедия, WEB-DLRip] pb.wtf

Мимино через торрент pb.wtf

Размер: 1.37 GB | Добавлен: 2 года 11 мес. назад | Торрент скачан:31 раз
Скачать  

25-11-2016 11:16 Мимино Скачать торрент  

Мимино
Год выпуска: 1977
Страна: СССР
Жанр: комедия
Продолжительность: 01:31:24
Перевод: Не требуется
Субтитры: отсутствуют

Режиссер: Георгий Данелия

rating

В ролях:

Вахтанг Кикабидзе, Фрунзик Мкртчян, Елена Проклова, Евгений Леонов, Руслан Микаберидзе, Закро Сахвадзе, Марина Дюжева, Арчил Гомиашвили, Валентина Титова, Владимир Басов ст., Зейнаб Боцвадзе, Борислав Брондуков, Василий Чхаидзе, Котэ Даушвили, Николай Граббе, Эдуард Изотов, Ипполит Хвичия, Заза Колелишвили, Савелий Крамаров, Леонид Куравлёв, Абессалом Лория, Русико Морчаладзе, Марина Поляк

Описание:

«Мимино» – по-грузински «сокол». Так называют друзья героя фильма, летчика Валико Мизандари, по воле режиссера то и дело попадающего в смешные, грустные, а порой драматические ситуации. Работая в родном горном селении, Мимино перевозит на вертолете почту, фрукты, овец. Но он давно мечтает о настоящей, большой авиации. Наконец ему удается воплотить свою мечту в жизнь…

Качество: WEB-DLRip
Формат: AVI
Видео кодек: XviD
Аудио кодек: AC3

Видео: 720x528 (4:3), 25 fps, XviD ~1690 kbps avg, 0.178 bit/pixel
Аудио#1: 48 kHz, AC3 Dolby Digital, 3/2 (L,C,R,l,r) + LFE ch, ~448.00 kbps
Общее
Полное имя : Mimino.1977.WEB-DLRip.avi
Формат : AVI
Формат/Информация : Audio Video Interleave
Размер файла : 1,37 Гбайт
Продолжительность : 1 ч. 31 м.
Общий поток : 2147 Кбит/сек
Название фильма : Мимино (1977)
Режиссёр : *** stillet ***
Тема : комедия
Программа кодирования : VirtualDubMod 1.5.10.3 (build 2550/release)
Библиотека кодирования : VirtualDubMod build 2550/release

Видео
Идентификатор : 0
Формат : MPEG-4 Visual
Профиль формата : Advanced Simple@L5
Параметр BVOP формата : 2
Параметр QPel формата : Нет
Параметр GMC формата : Без точки перехода
Параметр матрицы формата : Выборочная
Идентификатор кодека : XVID
Идентификатор кодека/Подсказка : XviD
Продолжительность : 1 ч. 31 м.
Битрейт : 1690 Кбит/сек
Ширина : 720 пикселей
Высота : 528 пикселей
Соотношение сторон : 4:3
Частота кадров : 25,000 кадров/сек
Цветовое пространство : YUV
Субдискретизация насыщенности : 4:2:0
Битовая глубина : 8 бит
Тип развёртки : Прогрессивная
Метод сжатия : С потерями
Бит/(Пиксели*Кадры) : 0.178
Размер потока : 1,08 Гбайт (79%)
Библиотека кодирования : XviD 73

Аудио
Идентификатор : 1
Формат : AC-3
Формат/Информация : Audio Coding 3
Расширение режима : CM (complete main)
Параметр Endianness формата : Big
Идентификатор кодека : 2000
Продолжительность : 1 ч. 31 м.
Вид битрейта : Постоянный
Битрейт : 448 Кбит/сек
Каналы : 6 каналов
Расположение каналов : Front: L C R, Side: L R, LFE
Частота : 48,0 КГц
Метод сжатия : С потерями
Размер потока : 292 Мбайт (21%)
Выравнивание : Разделение по промежуткам
Продолжительность промежутка : 40 мс. (1,00 видеокадр)
Время предзагрузки промежутка : 500 мс.
скриншот  скриншот  скриншот  скриншот  
pb.wtf



Скачать Мимино через торрент http://s018.radikal.ru/i527/1611/57/2e0152f7cf9e.jpg Скачать фильм Мимино через торрент бесплантно в хорошем качестве Описание: «Мимино» – по-грузински «сокол». Так называют друзья героя фильма, летчика Валико Мизандари, по воле режиссера то и дело ... 10 10 4
Торрент: Зарегистрирован [2016-11-25 11:16] · скачан: 31 раз
Статус: √ проверено
Размер: 1.37 GB
Как cкачать? Как скачать Мимино через торрент | qTorrent

% Раздел Тема Автор DL S | L
Наши фильмы (HD, WEB-DL 720p, 1080p) [ 2.18 GB ] Мимино [1977 СССР HDTVRip 720p от AVP Studio] AVP Studio Скачать
2 | 0
Кино СССР [ 1.46 GB ] Мимино [1977 СССР HDTVRip-AVC от AVP Studio] AVP Studio Скачать
1 | 0
Кино СССР [ 746 MB ] Мимино [1977 СССР HDTVRip от AVP Studio] AVP Studio Скачать
2 | 0
Кино СССР [ 1.46 GB ] Мимино [1977 СССР HDTVRip от AVP Studio] AVP Studio Скачать
1 | 0
Кино СССР [ 1.46 GB ] Мимино [1977 СССР DVDRip-AVC от AVP Studio] AVP Studio Скачать
1 | 0
Наши фильмы (HD, WEB-DL 720p, 1080p) [ 5.96 GB ] Мимино [1977 HDTV 1080i от HDClub] Ворон Скачать
1 | 0
Кино СССР [ 1.5 GB ] Мимино [1977 DVDRip] Bexram Скачать
1 | 0


>> Регистрируемся здесь <<






Отзывы и комментарии о схеме читаем и пишем здесь: ---> Отзывы и комментарии о схеме

Новые благодарочки в телеграм довольных пользователей:
скриншот   скриншот   скриншот   скриншот   скриншот
    Дорогой пользователь! Огромная просьба, поблагодарите релизера, оцените раздачу и оставьте свои комментарий, если Вы скачали Мимино через торрент бесплатно! Внесите свою лепту в развитие PiratBit!
    Комментировать посты могут только пользователи прошедшие не сложную регистрацию
    Показать сообщения:    

    Мимино через торрент
    Скачать бесплатно Мимино
    Мимино скачать торрент
    Мимино смотреть онлайн
    Cкачать фильм Мимино бесплатно
    Мимино скачать торрент в хорошем качестве
    Мимино смотреть онлайн бесплатно в хорошем качестве


    Вы не можете начинать темы
    Вы не можете отвечать на сообщения
    Вы не можете редактировать свои сообщения
    Вы не можете удалять свои сообщения
    Вы не можете голосовать в опросах
    Вы не можете прикреплять файлы к сообщениям
    Вы можете скачивать файлы