Ссылка на приватное зеркало нашего сайта всего за 1$. Внимание количество ограничено!!!

2 сезон

iTunes

1 сезон

1

iTunes

iTunes

iTunes

1 сезон

RePack

30

ИГРА 18+

pack

ВАЖНО

!!Акция!!

Alien_RageХит недели

RePack

MK11
pack

Забери бонус

RePack

jed

!!Акция!!

Alien_Rage

RePack

fifa19

RePack

Assassins Creed: Odyssey

RePack

NEED FOR SPEED™ PAYBACK

4 сезон

9 сезон

Бесстыжие 9 сезон

Все сериалы

все сериалы на PB.wtf

RePack

FAR CRY 5
  

Американский бизон / American Buffalo (Майкл Корренте) [1996, драма, BDRip 720p от еnvy / NNNB] DVO, AVO pb.wtf

Американский бизон через торрент pb.wtf

Размер: 4.37 GB | Добавлен: 3 года 10 мес. назад | Торрент скачан:20 раз
Скачать  

26-11-2016 05:37 Американский бизон Скачать торрент  

Информация о фильме

Русское название: Американский бизон
Оригинальное название: American Buffalo
Год выхода: 1996
Жанр: драма
Режиссер: Майкл Корренте
Выпущено: Великобритания, США
Продолжительность: 01:27:36
Перевод: Профессиональный (двухголосый закадровый), Авторский (одноголосый закадровый)
В ролях: Дастин Хоффман, Дэннис Франц, Шон Нельсон
Сюжет фильма

Двое друзей замышляют выкрасть у коллекционера монет нумизматическую редкость: 5-центовую монету, называемую «Американский Бизон». Но неожиданно жизнь вносит в их планы свои коррективы, что приводит к непредсказуемым последствиям.


Файл

Качество: BDRip 720p (исходник Blu-Ray Disc Remux)
Формат: MKV
Видео: 1280x694, 6568 Кбит/сек, 23,976 кадр/сек, AVC, x264, High@L4.1, 1.85:1, 0.308 Бит/[Пиксели*Кадры]
Аудио 1: AC-3, 192 Кбит/сек, 2 канала(ов), 48,0 КГц - Двухголосый закадровый / Русский
Аудио 2: AC-3, 192 Кбит/сек, 2 канала(ов), 48,0 КГц - Одноголосый закадровый, П. Карцев / Русский
Аудио 3: AC-3, 192 Кбит/сек, 2 канала(ов), 48,0 КГц - Оригинал / Английский
Субтитры: Английские | Полные
Форсированные субтитры: Нет
Чаптеры (Главы): Есть






Автор Рипа: Группа:


Format : Matroska
Format version : Version 2
File size : 4.37 GiB
Duration : 1 h 27 min
Overall bit rate : 7 137 kb/s
Movie name : American Buffalo.(1996).BDRip.720p.[envy]
Encoded date : UTC 2016-11-26 05:16:04
Writing application : mkvmerge v5.8.0 ('No Sleep / Pillow') built on Sep 2 2012 15:37:04
Writing library : libebml v1.2.3 + libmatroska v1.3.0

Video
ID : 1
Format : AVC
Format/Info : Advanced Video Codec
Format profile : High@L4.1
Format settings, CABAC : Yes
Format settings, ReFrames : 9 frames
Codec ID : V_MPEG4/ISO/AVC
Duration : 1 h 27 min
Bit rate : 6 568 kb/s
Width : 1 280 pixels
Height : 694 pixels
Display aspect ratio : 1.85:1
Frame rate mode : Constant
Frame rate : 23.976 (24000/1001) FPS
Color space : YUV
Chroma subsampling : 4:2:0
Bit depth : 8 bits
Scan type : Progressive
Bits/(Pixel*Frame) : 0.308
Stream size : 3.93 GiB (90%)
Title : American Buffalo.(1996).BDRip.720p.[envy]
Writing library : x264 core 148 r2721 72d53ab
Encoding settings : cabac=1 / ref=9 / deblock=1:-3:-3 / analyse=0x3:0x113 / me=umh / subme=11 / psy=1 / psy_rd=1.00:0.00 / mixed_ref=1 / me_range=32 / chroma_me=1 / trellis=2 / 8x8dct=1 / cqm=0 / deadzone=21,11 / fast_pskip=0 / chroma_qp_offset=-2 / threads=12 / lookahead_threads=2 / sliced_threads=0 / nr=0 / decimate=1 / interlaced=0 / bluray_compat=0 / constrained_intra=0 / bframes=7 / b_pyramid=2 / b_adapt=2 / b_bias=0 / direct=3 / weightb=1 / open_gop=0 / weightp=2 / keyint=240 / keyint_min=23 / scenecut=40 / intra_refresh=0 / rc=2pass / mbtree=0 / bitrate=6568 / ratetol=2.0 / qcomp=0.60 / qpmin=0 / qpmax=69 / qpstep=4 / cplxblur=20.0 / qblur=0.5 / ip_ratio=1.40 / pb_ratio=1.30 / aq=2:0.90
Language : English
Default : Yes
Forced : No

Audio #1
ID : 2
Format : AC-3
Format/Info : Audio Coding 3
Mode extension : CM (complete main)
Format settings, Endianness : Big
Codec ID : A_AC3
Duration : 1 h 27 min
Bit rate mode : Constant
Bit rate : 192 kb/s
Channel(s) : 2 channels
Channel positions : Front: L R
Sampling rate : 48.0 kHz
Frame rate : 31.250 FPS (1536 spf)
Compression mode : Lossy
Stream size : 120 MiB (3%)
Title : DVO
Language : Russian
Default : Yes
Forced : No

Audio #2
ID : 3
Format : AC-3
Format/Info : Audio Coding 3
Mode extension : CM (complete main)
Format settings, Endianness : Big
Codec ID : A_AC3
Duration : 1 h 27 min
Bit rate mode : Constant
Bit rate : 192 kb/s
Channel(s) : 2 channels
Channel positions : Front: L R
Sampling rate : 48.0 kHz
Frame rate : 31.250 FPS (1536 spf)
Compression mode : Lossy
Stream size : 120 MiB (3%)
Title : AVO Карцев
Language : Russian
Default : No
Forced : No

Audio #3
ID : 4
Format : AC-3
Format/Info : Audio Coding 3
Mode extension : CM (complete main)
Format settings, Endianness : Big
Codec ID : A_AC3
Duration : 1 h 27 min
Bit rate mode : Constant
Bit rate : 192 kb/s
Channel(s) : 2 channels
Channel positions : Front: L R
Sampling rate : 48.0 kHz
Frame rate : 31.250 FPS (1536 spf)
Compression mode : Lossy
Stream size : 120 MiB (3%)
Title : Eng
Language : English
Default : No
Forced : No

Text
ID : 5
Format : UTF-8
Codec ID : S_TEXT/UTF8
Codec ID/Info : UTF-8 Plain Text
Title : Eng full
Language : English
Default : No
Forced : No

Menu
00:00:00.000 : :Chapter 01
00:04:29.184 : :Chapter 02
00:08:14.577 : :Chapter 03
00:11:19.845 : :Chapter 04
00:13:57.002 : :Chapter 05
00:17:00.978 : :Chapter 06
00:21:56.272 : :Chapter 07
00:25:52.300 : :Chapter 08
00:28:24.911 : :Chapter 09
00:31:34.392 : :Chapter 10
00:35:53.192 : :Chapter 11
00:38:41.777 : :Chapter 12
00:41:54.428 : :Chapter 13
00:47:27.553 : :Chapter 14
00:50:54.342 : :Chapter 15
00:54:16.210 : :Chapter 16
00:57:38.454 : :Chapter 17
01:01:27.433 : :Chapter 18
01:05:13.409 : :Chapter 19
01:08:50.000 : :Chapter 20
01:12:09.658 : :Chapter 21
01:15:48.919 : :Chapter 22
01:19:05.782 : :Chapter 23
01:23:27.292 : :Chapter 24

pb.wtf



Скачать Американский бизон через торрент http://img11.lostpic.net/2016/11/25/5c3e713fa5f4a79d207d2c9e3fc56675.png Скачать фильм Американский бизон через торрент бесплантно в хорошем качестве В ролях: Дастин Хоффман, Дэннис Франц, Шон НельсонСюжет фильмаДвое друзей замышляют выкрасть у коллекционера монет нумизматическую ... 7.8 10 4
Info! Золотая раздача, скачанное не засчитывается.
Торрент: Зарегистрирован [2016-11-26 05:37] · скачан: 20 раз
Статус: √ проверено
Размер: 4.37 GB
Как cкачать? Как скачать Американский бизон через торрент | qTorrent

% Раздел Тема Автор DL S | L
Фильмы [HD 720p, 1080p] (Хороший звук DUB, MVO) [ 7.75 GB ] Американский бизон / American Buffalo [1996 BDRip 1080p от еnvy / NNNB] DVO AVO еnvy Скачать
1 | 0

28-11-2019 20:33  

Отключить всю рекламу на сайте

    Дорогой пользователь! Огромная просьба, поблагодарите релизера, оцените раздачу и оставьте свои комментарий, если Вы скачали Американский бизон через торрент бесплатно! Внесите свою лепту в развитие PiratBit!
    Комментировать посты могут только пользователи прошедшие не сложную регистрацию
    Показать сообщения:    

    Американский бизон через торрент
    Скачать бесплатно Американский бизон
    Американский бизон скачать торрент
    Американский бизон смотреть онлайн
    Cкачать фильм Американский бизон бесплатно
    Американский бизон скачать торрент в хорошем качестве
    Американский бизон смотреть онлайн бесплатно в хорошем качестве


    Вы не можете начинать темы
    Вы не можете отвечать на сообщения
    Вы не можете редактировать свои сообщения
    Вы не можете удалять свои сообщения
    Вы не можете голосовать в опросах
    Вы не можете прикреплять файлы к сообщениям
    Вы можете скачивать файлы