Ссылка на приватное зеркало нашего сайта всего за 1$. Внимание количество ограничено!!!

2 сезон

iTunes

1 сезон

1

2 сезон

2 сезон

iTunes

1 сезон

RePack

30

Новинка

ВАЖНО

ИГРА 18+

pack

RePack

MK11
pack

Забери бонус

RePack

jed

!!Акция!!

Alien_Rage

RePack

fifa19

RePack

Assassins Creed: Odyssey

RePack

NEED FOR SPEED™ PAYBACK

4 сезон

9 сезон

Бесстыжие 9 сезон

Все сериалы

все сериалы на PB.wtf

RePack

FAR CRY 5
  

Северино / Severino (Клаус Добберк) [1978, драма, вестерн, BDRip 720p by msltel] VO (профессиональный) pb.wtf

Северино через торрент pb.wtf

Размер: 3.48 GB | Добавлен: 4 года назад | Торрент скачан:22 раза
Скачать  

26-11-2016 06:17 Северино Скачать торрент  

Название: Северино
Оригинальное название: Severino
Год выпуска: 1978
Страна: Германия (ГДР)
Жанр: драма, вестерн
Продолжительность: 01:18:30
Перевод: профессиональный одноголосый

Режиссёр: Клаус Добберк

В ролях: Гойко Митич, Виолета Андрей, Леон Немчик, Константин Фугасин, Мирчи Анхелеску, Эманоил Петруц, Зефи Алчек, Гельмут Шрайбер, Марсель Анхелеску, Юри Дари, Ион Дикисяну, Вилли Шрайде, Томас Фолфф

Описание: Северино, южноамериканский индеец племени манзанеро, возвращается в родную деревню после 10-летнего отсутствия, чтобы забрать с собой своего младшего брата. Он работал у белых, накопил денег и теперь собирается купить земельный участок на Севере, чтобы начать новую жизнь. Но в его родной деревне драматически обострилась ситуация. Кто-то угоняет скот, нападает на индейцев и на белых поселенцев, явно желая натравить их друг на друга. Северино остается, он хочет добиться, чтобы индейцы мирно жили рядом с белыми…



Качество: BDRip 720p Сравнение с исходником
Формат: MKV
Видео: MPEG-4 AVC, 5760 Кбит/с, 1196x720, 25 кадра/с
Аудио 1: русский, AC3, 384 kbps, 2 ch, 48 kHz [профессиональный одноголосый, В. Дорошенко (Студия Довженко)]
Аудио 2: немецкий, AC3, 192 kbps, 2 ch, 48 kHz [оригинал]
Общее
Уникальный идентификатор : 218852578047093161586421946325521408515 (0xA4A5792D403BD18FB56527EF51842203)
Полное имя : D:\Video\Северино.1978.BDRip.720p by msltel.mkv
Формат : Matroska
Версия формата : Version 4 / Version 2
Размер файла : 3,48 Гбайт
Продолжительность : 1 ч. 18 м.
Общий поток : 6338 Кбит/сек
Название фильма : Rip by msltel
Дата кодирования : UTC 2016-11-25 12:12:05
Программа кодирования : mkvmerge v8.2.0 ('World of Adventure') 64bit
Библиотека кодирования : libebml v1.3.1 + libmatroska v1.4.2

Видео
Идентификатор : 1
Формат : AVC
Формат/Информация : Advanced Video Codec
Профиль формата : High@L4.1
Параметр CABAC формата : Да
Параметр ReFrames формата : 9 кадров
Идентификатор кодека : V_MPEG4/ISO/AVC
Продолжительность : 1 ч. 18 м.
Битрейт : 5760 Кбит/сек
Ширина : 1196 пикселей
Высота : 720 пикселей
Соотношение сторон : 5:3
Режим частоты кадров : Постоянный
Частота кадров : 25,000 кадров/сек
Цветовое пространство : YUV
Субдискретизация насыщенности : 4:2:0
Битовая глубина : 8 бит
Тип развёртки : Прогрессивная
Бит/(Пиксели*Кадры) : 0.268
Размер потока : 3,16 Гбайт (91%)
Библиотека кодирования : x264 core 146 r2538 121396c
Настройки программы : cabac=1 / ref=9 / deblock=1:-3:-3 / analyse=0x3:0x113 / me=umh / subme=9 / psy=1 / psy_rd=1.00:0.15 / mixed_ref=1 / me_range=32 / chroma_me=1 / trellis=1 / 8x8dct=1 / cqm=0 / deadzone=21,11 / fast_pskip=0 / chroma_qp_offset=-3 / threads=6 / lookahead_threads=1 / sliced_threads=0 / nr=0 / decimate=1 / interlaced=0 / bluray_compat=0 / constrained_intra=0 / bframes=9 / b_pyramid=2 / b_adapt=2 / b_bias=0 / direct=1 / weightb=1 / open_gop=0 / weightp=2 / keyint=250 / keyint_min=25 / scenecut=40 / intra_refresh=0 / rc_lookahead=40 / rc=crf / mbtree=0 / crf=21.4 / qcomp=0.60 / qpmin=0 / qpmax=69 / qpstep=4 / vbv_maxrate=50000 / vbv_bufsize=62500 / crf_max=0.0 / nal_hrd=none / filler=0 / ip_ratio=1.40 / pb_ratio=1.30 / aq=1:1.00
Язык : German
Default : Да
Forced : Нет

Аудио #1
Идентификатор : 2
Формат : AC-3
Формат/Информация : Audio Coding 3
Расширение режима : CM (complete main)
Параметр Endianness формата : Big
Идентификатор кодека : A_AC3
Продолжительность : 1 ч. 18 м.
Вид битрейта : Постоянный
Битрейт : 384 Кбит/сек
Каналы : 2 канала
Расположение каналов : Front: L R
Частота : 48,0 КГц
Частота кадров : 31,250 кадров/сек (1536 spf)
Метод сжатия : С потерями
Размер потока : 216 Мбайт (6%)
Заголовок : любительский одноголосый, В. Дорошенко (Студия Довженко)
Язык : Russian
Default : Да
Forced : Нет

Аудио #2
Идентификатор : 3
Формат : AC-3
Формат/Информация : Audio Coding 3
Расширение режима : CM (complete main)
Параметр Endianness формата : Big
Идентификатор кодека : A_AC3
Продолжительность : 1 ч. 18 м.
Вид битрейта : Постоянный
Битрейт : 192 Кбит/сек
Каналы : 2 канала
Расположение каналов : Front: L R
Частота : 48,0 КГц
Частота кадров : 31,250 кадров/сек (1536 spf)
Метод сжатия : С потерями
Размер потока : 108 Мбайт (3%)
Заголовок : original
Язык : German
Default : Нет
Forced : Нет

Меню
00:00:00.000 : :Chapter 01
00:00:01.919 : :Chapter 02
00:00:58.399 : :Chapter 03

ВКОНТАКТЕpb.wtf



Скачать Северино через торрент http://s017.radikal.ru/i403/1611/73/952b9076ca9e.jpg Скачать фильм Северино через торрент бесплантно в хорошем качестве Описание: Северино, южноамериканский индеец племени манзанеро, возвращается в родную деревню после 10-летнего отсутствия, чтобы забрать с ... 10 10 2
Info! Золотая раздача, скачанное не засчитывается.
Торрент: Зарегистрирован [2016-11-26 06:17] · скачан: 22 раз
Статус: √ проверено
Размер: 3.48 GB
Как cкачать? Как скачать Северино через торрент | qTorrent

% Раздел Тема Автор DL S | L
Фильмы до 2000 г. [ 2.3 GB ] Северино / Severino [1978 BDRip-AVC] VO - ExKinoRay Enigma2010 Скачать
1 | 0

28-11-2019 20:33  

Отключить всю рекламу на сайте

    Дорогой пользователь! Огромная просьба, поблагодарите релизера, оцените раздачу и оставьте свои комментарий, если Вы скачали Северино через торрент бесплатно! Внесите свою лепту в развитие PiratBit!
    Комментировать посты могут только пользователи прошедшие не сложную регистрацию
    Показать сообщения:    

    Северино через торрент
    Скачать бесплатно Северино
    Северино скачать торрент
    Северино смотреть онлайн
    Cкачать фильм Северино бесплатно
    Северино скачать торрент в хорошем качестве
    Северино смотреть онлайн бесплатно в хорошем качестве


    Вы не можете начинать темы
    Вы не можете отвечать на сообщения
    Вы не можете редактировать свои сообщения
    Вы не можете удалять свои сообщения
    Вы не можете голосовать в опросах
    Вы не можете прикреплять файлы к сообщениям
    Вы можете скачивать файлы