Ссылка на приватное зеркало нашего сайта всего за 1$. Внимание количество ограничено!!!

2 сезон

iTunes

1 сезон

1

iTunes

iTunes

iTunes

1 сезон

RePack

30

ИГРА 18+

pack

ВАЖНО

!!Акция!!

Alien_RageХит недели

RePack

MK11
pack

Забери бонус

RePack

jed

!!Акция!!

Alien_Rage

RePack

fifa19

RePack

Assassins Creed: Odyssey

RePack

NEED FOR SPEED™ PAYBACK

4 сезон

9 сезон

Бесстыжие 9 сезон

Все сериалы

все сериалы на PB.wtf

RePack

FAR CRY 5
  

Девятые врата / The Ninth Gate (Роман Полански) [1999 г., триллер, детектив, BDRip 1080p] DUB+MVO pb.wtf

Девятые врата через торрент pb.wtf

Размер: 7.76 GB | Добавлен: 3 года 10 мес. назад | Торрент скачан:182 раза
Скачать  

26-11-2016 17:16 Девятые врата Скачать торрент  

Девятые врата / The Ninth Gate
Год выпуска: 1999
Страна: Испания, Франция, США
Жанр: триллер, детектив
Продолжительность: 02:13:15
Перевод:

Профессиональный (полное дублирование) +
Профессиональный (многоголосый, закадровый)


Субтитры: Русские, английские

Режиссер: Роман Полански

rating

В ролях:

Джонни Депп, Фрэнк Ланджелла, Лена Олин, Эмманюэль Сенье, Барбара Джеффорд, Джек Тейлор, Хосе Лопес Родеро, Тони Амони, Джеймс Руссо, Уилли Холт

Описание:

Дин Корсо, один из лучших специалистов по поиску, оценке и скупке раритетных изданий, принимает от владельца крупнейшей в мире библиотеки оккультных книг необычный, но крайне выгодный заказ: определить подлинность венца собрания, фолианта XVII века под названием «Девять врат в царство призраков», с помощью которого, по преданию, можно вызвать самого Люцифера. Ему предстоит полное опасностей и тайн путешествие по Европе.
Но только тогда, когда на пути к разгадке тайны «Девятых врат» начинают попадаться трупы тех, с кем Дин Корсо встречался совсем недавно, ему открывается зловещая правда. Он понимает, что в этой дьявольской игре на кон поставлена не только жизнь его, но и душа…

Качество: BDRip 1080p
Формат: MKV
Видео кодек: H.264
Аудио кодек: AC3

Видео: 1920x816p (2.35:1), 23.976 fps, AVC MPEG-4 (H.264), High@L4.1 ~7060 kbps, 0.188 bit/pixel
Аудио#1: Русский: 48 kHz, AC3 Dolby Digital, 6 ch, ~384 kbps [Профессиональный (полное дублирование)]
Аудио#2: Русский: 48 kHz, AC3 Dolby Digital, 6 ch, ~448 kbps [Профессиональный (многоголосый, закадровый)]
Аудио#3: Английский: 48 kHz, AC3 Dolby Digital, 6 ch, ~448 kbps [Оригинал]
Общее
Уникальный идентификатор : 177363105382673770350271451912854850919 (0x856EE43DD6FB4A11B0CD98C2C0484D67)
Полное имя : The.Ninth.Gate.1999.BDRip.1080p.Rus.Eng.mkv
Формат : Matroska
Версия формата : Version 2
Размер файла : 7,76 Гбайт
Продолжительность : 2 ч. 13 м.
Общий поток : 8343 Кбит/сек
Название фильма : Девятые врата / The Ninth Gate (1999)
Дата кодирования : UTC 2013-03-31 14:13:28
Программа кодирования : mkvmerge v5.8.0 ('No Sleep / Pillow') built on Sep 2 2012 15:37:04
Библиотека кодирования : libebml v1.2.3 + libmatroska v1.3.0

Видео
Идентификатор : 1
Формат : AVC
Формат/Информация : Advanced Video Codec
Профиль формата : High@L4.1
Параметр CABAC формата : Да
Параметр ReFrames формата : 5 кадров
Идентификатор кодека : V_MPEG4/ISO/AVC
Продолжительность : 2 ч. 13 м.
Битрейт : 7060 Кбит/сек
Ширина : 1920 пикселей
Высота : 816 пикселей
Соотношение сторон : 2,35:1
Частота кадров : 23,976 кадра/сек
Цветовое пространство : YUV
Субдискретизация насыщенности : 4:2:0
Битовая глубина : 8 бит
Тип развёртки : Прогрессивная
Бит/(Пиксели*Кадры) : 0.188
Размер потока : 6,42 Гбайт (83%)
Заголовок : Release by AlexKa
Библиотека кодирования : x264 core 130 r2273 b3065e6
Настройки программы : cabac=1 / ref=5 / deblock=1:-3:-3 / analyse=0x3:0x133 / me=umh / subme=10 / psy=1 / psy_rd=1.00:0.10 / mixed_ref=1 / me_range=32 / chroma_me=1 / trellis=2 / 8x8dct=1 / cqm=0 / deadzone=21,11 / fast_pskip=0 / chroma_qp_offset=-3 / threads=12 / lookahead_threads=1 / sliced_threads=0 / nr=0 / decimate=0 / interlaced=0 / bluray_compat=0 / constrained_intra=0 / bframes=5 / b_pyramid=2 / b_adapt=2 / b_bias=0 / direct=3 / weightb=1 / open_gop=0 / weightp=2 / keyint=240 / keyint_min=23 / scenecut=40 / intra_refresh=0 / rc=2pass / mbtree=0 / bitrate=7060 / ratetol=1.0 / qcomp=0.60 / qpmin=0 / qpmax=69 / qpstep=4 / cplxblur=20.0 / qblur=0.5 / ip_ratio=1.40 / pb_ratio=1.30 / aq=1:0.80
Язык : English

Аудио #1
Идентификатор : 2
Формат : AC-3
Формат/Информация : Audio Coding 3
Расширение режима : CM (complete main)
Идентификатор кодека : A_AC3
Продолжительность : 2 ч. 13 м.
Вид битрейта : Постоянный
Битрейт : 384 Кбит/сек
Каналы : 6 каналов
Расположение каналов : Front: L C R, Side: L R, LFE
Частота : 48,0 КГц
Битовая глубина : 16 бит
Метод сжатия : С потерями
Размер потока : 366 Мбайт (5%)
Заголовок : Дубляж
Язык : Russian

Аудио #2
Идентификатор : 3
Формат : AC-3
Формат/Информация : Audio Coding 3
Расширение режима : CM (complete main)
Идентификатор кодека : A_AC3
Продолжительность : 2 ч. 13 м.
Вид битрейта : Постоянный
Битрейт : 448 Кбит/сек
Каналы : 6 каналов
Расположение каналов : Front: L C R, Side: L R, LFE
Частота : 48,0 КГц
Битовая глубина : 16 бит
Метод сжатия : С потерями
Размер потока : 427 Мбайт (5%)
Заголовок : Многоголосый закадровый
Язык : Russian

Аудио #3
Идентификатор : 4
Формат : AC-3
Формат/Информация : Audio Coding 3
Расширение режима : CM (complete main)
Идентификатор кодека : A_AC3
Продолжительность : 2 ч. 13 м.
Вид битрейта : Постоянный
Битрейт : 448 Кбит/сек
Каналы : 6 каналов
Расположение каналов : Front: L C R, Side: L R, LFE
Частота : 48,0 КГц
Битовая глубина : 16 бит
Метод сжатия : С потерями
Размер потока : 427 Мбайт (5%)
Заголовок : Original
Язык : English

Текст #1
Идентификатор : 5
Формат : UTF-8
Идентификатор кодека : S_TEXT/UTF8
Идентификатор кодека/Информация : UTF-8 Plain Text
Заголовок : Rus
Язык : Russian

Текст #2
Идентификатор : 6
Формат : UTF-8
Идентификатор кодека : S_TEXT/UTF8
Идентификатор кодека/Информация : UTF-8 Plain Text
Заголовок : Eng
Язык : English

Меню
00:00:00.000 : :Chapter 01
00:00:00.792 : :Chapter 02
00:00:30.572 : :Chapter 03
00:09:45.001 : :Chapter 04
00:18:08.671 : :Chapter 05
00:22:41.734 : :Chapter 06
00:32:16.226 : :Chapter 07
00:37:34.169 : :Chapter 08
00:44:55.860 : :Chapter 09
00:53:45.556 : :Chapter 10
01:02:16.232 : :Chapter 11
01:10:30.017 : :Chapter 12
01:21:04.276 : :Chapter 13
01:28:07.240 : :Chapter 14
01:34:33.334 : :Chapter 15
01:42:53.667 : :Chapter 16
01:51:42.696 : :Chapter 17
02:05:30.815 : :Chapter 18
скриншот  скриншот  скриншот  скриншот  
pb.wtf



Скачать Девятые врата через торрент http://pic1.kartinco.top/images/11/rg6m3.jpg Скачать фильм Девятые врата через торрент бесплантно в хорошем качестве Описание: Дин Корсо, один из лучших специалистов по поиску, оценке и скупке раритетных изданий, принимает от владельца крупнейшей в мире ... 9.1 10 10
Торрент: Зарегистрирован [2016-11-26 17:16] · скачан: 182 раз
Статус: √ проверено
Размер: 7.76 GB
Как cкачать? Как скачать Девятые врата через торрент | qTorrent

% Раздел Тема Автор DL S | L
Фильмы [HD 720p, 1080p] (Хороший звук DUB, MVO) [ 21.79 GB ] Девятые врата / The Ninth Gate [1999 BDRip 1080p by msltel] DUB 3 x MVO 2 x DVO 4 x AVO msltel Скачать
1 | 0
Фильмы [HD 720p, 1080p] (Хороший звук DUB, MVO) [ 8.32 GB ] Девятые врата / The Ninth Gate [1999 BDRip 720p by msltel] DUB 3 x MVO 2 x DVO 4 x AVO msltel Скачать
1 | 0
Фильмы [HD 720p, 1080p] (Хороший звук DUB, MVO) [ 11.76 GB ] Девятые врата / The Ninth Gate [1999 BDRip 1080p] DUB + MVO Arhangell Скачать
1 | 0

28-11-2019 20:33  

Отключить всю рекламу на сайте

26-11-2016 19:36 Девятые врата Скачать торрент  

Хороший фильм, Депп на высоте.pb.wtf



26-11-2016 22:44 Девятые врата Скачать торрент  

vaffe писал(а):

Хороший фильм, Депп на высоте.

Отличная роль и фильм не плохой)pb.wtf



    Дорогой пользователь! Огромная просьба, поблагодарите релизера, оцените раздачу и оставьте свои комментарий, если Вы скачали Девятые врата через торрент бесплатно! Внесите свою лепту в развитие PiratBit!
    Комментировать посты могут только пользователи прошедшие не сложную регистрацию
    Показать сообщения:    

    Девятые врата через торрент
    Скачать бесплатно Девятые врата
    Девятые врата скачать торрент
    Девятые врата смотреть онлайн
    Cкачать фильм Девятые врата бесплатно
    Девятые врата скачать торрент в хорошем качестве
    Девятые врата смотреть онлайн бесплатно в хорошем качестве


    Вы не можете начинать темы
    Вы не можете отвечать на сообщения
    Вы не можете редактировать свои сообщения
    Вы не можете удалять свои сообщения
    Вы не можете голосовать в опросах
    Вы не можете прикреплять файлы к сообщениям
    Вы можете скачивать файлы