2 сезон

iTunes

1 сезон

1

iTunes

iTunes

iTunes

1 сезон

RePack

30

ИГРА 18+

pack

ВАЖНО

!!Акция!!

Alien_RageХит недели

RePack

MK11
pack

Забери бонус

RePack

jed

!!Акция!!

Alien_Rage

RePack

fifa19

RePack

Assassins Creed: Odyssey

RePack

NEED FOR SPEED™ PAYBACK

4 сезон

9 сезон

Бесстыжие 9 сезон

Все сериалы

все сериалы на PB.wtf

RePack

FAR CRY 5
  

Аватар / Avatar (Джеймс Кэмерон) [2009 г., фантастика, боевик, драма, приключения, BDRip 1080p] [Extended Collector's Edition] DUB pb.wtf

Аватар через торрент pb.wtf

Размер: 11.55 GB | Добавлен: 3 года 11 мес. назад | Торрент скачан:736 раз
Скачать  

26-11-2016 18:04 Аватар Скачать торрент  

Аватар / Avatar[Extended Collector's Edition]
Год выпуска: 2009
Страна: США, Великобритания
Жанр: фантастика, боевик, драма, приключения
Продолжительность: 02:58:09
Перевод: Профессиональный (полное дублирование)
Субтитры: Русские, английские

Режиссер: Джеймс Кэмерон

rating

В ролях:

Сэм Уортингтон, Зои Салдана, Сигурни Уивер, Стивен Лэнг, Мишель Родригес, Джованни Рибизи, Джоэль Мур, Си Си Эйч Паундер, Уэс Стьюди, Лас Алонсо

Описание:

Джейк Салли — бывший морской пехотинец, прикованный к инвалидному креслу. Несмотря на немощное тело, Джейк в душе по-прежнему остается воином. Он получает задание совершить путешествие в несколько световых лет к базе землян на планете Пандора, где корпорации добывают редкий минерал, имеющий огромное значение для выхода Земли из энергетического кризиса.

Качество: BDRip 1080p
Формат: MKV
Видео кодек: H.264
Аудио кодек: AC3

Видео: 1920x1080p (16:9), 23.976 fps, AVC MPEG-4 (H.264), High@L4.1 ~8000 kbps, 0.161 bit/pixel
Аудио#1: Русский: 48 kHz, AC3 Dolby Digital, 6 ch, ~640 kbps [Профессиональный (полное дублирование)]
Аудио#2: Английский: 48 kHz, AC3 Dolby Digital, 6 ch, ~640 kbps [Оригинал]
Общее
Уникальный идентификатор : 205024459763032342125415240406694830072 (0x9A3E464EBCE2AB02AD87E5FFA7031FF8)
Полное имя : Avatar.2009.BDRip.1080p.Rus.Eng.mkv
Формат : Matroska
Версия формата : Version 2
Размер файла : 11,5 Гбайт
Продолжительность : 2 ч. 58 м.
Общий поток : 9281 Кбит/сек
Название фильма : Аватар / Avatar [Extended Collector's Edition] (2009)
Дата кодирования : UTC 2012-05-19 03:23:49
Программа кодирования : mkvmerge v5.5.0 ('Healer') built on Apr 6 2012 21:43:24
Библиотека кодирования : libebml v1.2.3 + libmatroska v1.3.0

Видео
Идентификатор : 1
Формат : AVC
Формат/Информация : Advanced Video Codec
Профиль формата : High@L4.1
Параметр CABAC формата : Да
Параметр ReFrames формата : 4 кадра
Идентификатор кодека : V_MPEG4/ISO/AVC
Продолжительность : 2 ч. 58 м.
Битрейт : 8000 Кбит/сек
Ширина : 1920 пикселей
Высота : 1080 пикселей
Соотношение сторон : 16:9
Частота кадров : 23,976 кадра/сек
Цветовое пространство : YUV
Субдискретизация насыщенности : 4:2:0
Битовая глубина : 8 бит
Тип развёртки : Прогрессивная
Бит/(Пиксели*Кадры) : 0.161
Размер потока : 9,73 Гбайт (84%)
Заголовок : Release by AlexKa
Библиотека кодирования : x264 core 124 r2197 69a0443
Настройки программы : cabac=1 / ref=4 / deblock=1:0:0 / analyse=0x3:0x133 / me=tesa / subme=11 / psy=1 / psy_rd=1.00:0.00 / mixed_ref=1 / me_range=32 / chroma_me=1 / trellis=2 / 8x8dct=1 / cqm=0 / deadzone=21,11 / fast_pskip=0 / chroma_qp_offset=-2 / threads=12 / sliced_threads=0 / nr=0 / decimate=0 / interlaced=0 / bluray_compat=0 / constrained_intra=0 / bframes=5 / b_pyramid=2 / b_adapt=2 / b_bias=0 / direct=3 / weightb=1 / open_gop=0 / weightp=2 / keyint=240 / keyint_min=23 / scenecut=40 / intra_refresh=0 / rc_lookahead=60 / rc=2pass / mbtree=1 / bitrate=8000 / ratetol=1.0 / qcomp=0.60 / qpmin=0 / qpmax=69 / qpstep=4 / cplxblur=20.0 / qblur=0.5 / ip_ratio=1.40 / aq=1:1.00
Язык : English

Аудио #1
Идентификатор : 2
Формат : AC-3
Формат/Информация : Audio Coding 3
Расширение режима : CM (complete main)
Идентификатор кодека : A_AC3
Продолжительность : 2 ч. 58 м.
Вид битрейта : Постоянный
Битрейт : 640 Кбит/сек
Каналы : 6 каналов
Расположение каналов : Front: L C R, Side: L R, LFE
Частота : 48,0 КГц
Битовая глубина : 16 бит
Метод сжатия : С потерями
Размер потока : 816 Мбайт (7%)
Заголовок : Rus
Язык : Russian

Аудио #2
Идентификатор : 3
Формат : AC-3
Формат/Информация : Audio Coding 3
Расширение режима : CM (complete main)
Идентификатор кодека : A_AC3
Продолжительность : 2 ч. 58 м.
Вид битрейта : Постоянный
Битрейт : 640 Кбит/сек
Каналы : 6 каналов
Расположение каналов : Front: L C R, Side: L R, LFE
Частота : 48,0 КГц
Битовая глубина : 16 бит
Метод сжатия : С потерями
Размер потока : 816 Мбайт (7%)
Заголовок : Eng
Язык : English

Текст #1
Идентификатор : 4
Формат : UTF-8
Идентификатор кодека : S_TEXT/UTF8
Идентификатор кодека/Информация : UTF-8 Plain Text
Заголовок : Rus forced
Язык : Russian

Текст #2
Идентификатор : 5
Формат : UTF-8
Идентификатор кодека : S_TEXT/UTF8
Идентификатор кодека/Информация : UTF-8 Plain Text
Заголовок : Rus
Язык : Russian

Текст #3
Идентификатор : 6
Формат : UTF-8
Идентификатор кодека : S_TEXT/UTF8
Идентификатор кодека/Информация : UTF-8 Plain Text
Заголовок : Eng
Язык : English

Меню
00:00:00.000 : en:Lost Soul
00:05:25.575 : en:A New World
00:10:12.278 : en:You Are Not In Kansas Anymore
00:11:47.915 : en:"This Is Your Avatar Now, Jake ."
00:15:59.208 : en:"This Is Why We're Here..."
00:17:54.782 : en:First Awakening
00:23:54.891 : en:Colonel Quaritch
00:27:54.547 : en:First Sortie
00:30:27.617 : en:Abandoned Schoolhouse
00:32:27.904 : en:Thanator Chase
00:37:16.525 : en:A Sign
00:39:08.053 : en:Viperwolves
00:41:18.475 : en:Neytiri
00:49:16.912 : en:The Omaticaya Clan
00:55:42.213 : en:Cover Report
01:01:09.415 : en:The Hallelujah Mountains
01:07:03.227 : en:Learn Fast Or Die
01:11:50.222 : en:A Mother's Pain
01:15:53.799 : en:Banshee Rookery
01:22:38.119 : en:First Flight
01:26:12.709 : en:Clan Hunt
01:27:42.298 : en:Last Shadow
01:33:00.407 : en:A Son Of the Omaticaya
01:37:36.892 : en:Willow Glade Destruction
01:44:15.290 : en:Conflict Escalation
01:50:02.595 : en:"You Will Never Be One Of The People!"
01:51:53.581 : en:Assault On Hometree
01:58:30.895 : en:Aftermath
02:02:13.284 : en:Escape From Hell's Gate
02:07:51.663 : en:There's Something We Gotta Do..."
02:09:30.554 : en:Toruk Macto
02:12:36.615 : en:"She's Real"
02:16:03.363 : en:Recruiting The Clans
02:19:31.654 : en:Preamble To Battle
02:23:59.630 : en:Battle For Pandora
02:30:05.079 : en:Fall Of The Heroes
02:33:56.852 : en:Eywa
02:40:02.259 : en:Quartich Fight
02:45:33.214 : en:"I See You"
02:46:48.498 : en:My Brother
02:48:56.793 : en:Transformation
02:51:32.073 : en:End Credits
скриншот  скриншот  скриншот  скриншот  
pb.wtf



Скачать Аватар через торрент http://pic1.kartinco.top/images/11/iwfwx.jpg Скачать фильм Аватар через торрент бесплантно в хорошем качестве Описание: Джейк Салли — бывший морской пехотинец, прикованный к инвалидному креслу. Несмотря на немощное тело, Джейк в душе по-прежнему ... 9.6 10 35
Info! Золотая раздача, скачанное не засчитывается.
Торрент: Зарегистрирован [2016-11-26 18:04] · скачан: 736 раз
Статус: √ проверено
Размер: 11.55 GB
Как cкачать? Как скачать Аватар через торрент | qTorrent

% Раздел Тема Автор DL S | L
Фильмы (HD 720p, 1080p) (48-60 fps) [ 20.85 GB ] Аватар / Avatar [2009 BDRip 1080p] DUB 120 fps -Extended Collector's Cut Tiberiumsun69 Скачать
2 | 0
Ultra HD (UHD: 2K, 4K, 8K) — видео сверхвысокой чёткости [ 65.59 GB ] Аватар / Avatar [2009 UHD BDRip 2160p] [SDR] DUB [Расширенная версия] bober100 Скачать
2 | 0
Ultra HD (UHD: 2K, 4K, 8K) — видео сверхвысокой чёткости [ 101.95 GB ] Аватар / Avatar [2009 Remastered 2160p] DUB + MVO + AVO [Расширенная версия] sheker187 Скачать
5 | 0
Фильмы [HD 720p, 1080p] (Хороший звук DUB, MVO) [ 11.36 GB ] Аватар / Avatar [2009 BDRip-HEVC 1080p ] [Extended Collector's Edition] AVO [Сербин] +DUB [] bober100 Скачать
2 | 0
Аниме [DVDrip, WEB-DLRip, HDrip] [ 19.79 GB ] Аватар: Легенда об Аанге / Avatar: The Last Airbender / Книга 1-3 / Серии: 1-61 из 61 [2005-2008 мультфильм DVDRip-AVC by keeper.52] DUB keeper.52 Скачать
2 | 0
Фильмы (HD 720p, 1080p) (48-60 fps) [ 6.54 GB ] Аватар / Avatar [2009 Extended Collector's Edition BDRip-HEVC 720p / 60 FPS Dub Original] Tiberiumsun69 Скачать
42 | 0
Ultra HD (UHD: 2K, 4K, 8K) — видео сверхвысокой чёткости [ 20.65 GB ] Аватар / Avatar [2009 UHDWEBRip 2160p] DUB+AVO [] sheker187 Скачать
2 | 0

28-11-2019 20:33  

Отключить всю рекламу на сайте

26-11-2016 18:31 Аватар Скачать торрент  

Здорово наконец то в хорошем качестве можно глянуть.pb.wtf



26-11-2016 20:37 Аватар Скачать торрент  

Качал релиз 80гб когда-то pb.wtf



26-11-2016 23:39 Аватар Скачать торрент  

rusweld писал(а):

Здорово наконец то в хорошем качестве можно глянуть.

ага всего то 7 лет прошло...)pb.wtf



27-11-2016 03:33 Аватар Скачать торрент  

rusweld писал(а):

Здорово наконец то в хорошем качестве можно глянуть.

О Боже чувак! Уже давно было качество лучше этого даже!pb.wtf



27-11-2016 10:30 Аватар Скачать торрент  

rusweld писал(а):

Здорово наконец то в хорошем качестве можно глянуть.

хорошая шуткаpb.wtf



    Дорогой пользователь! Огромная просьба, поблагодарите релизера, оцените раздачу и оставьте свои комментарий, если Вы скачали Аватар через торрент бесплатно! Внесите свою лепту в развитие PiratBit!
    Комментировать посты могут только пользователи прошедшие не сложную регистрацию
    Показать сообщения:    

    Аватар через торрент
    Скачать бесплатно Аватар
    Аватар скачать торрент
    Аватар смотреть онлайн
    Cкачать фильм Аватар бесплатно
    Аватар скачать торрент в хорошем качестве
    Аватар смотреть онлайн бесплатно в хорошем качестве


    Вы не можете начинать темы
    Вы не можете отвечать на сообщения
    Вы не можете редактировать свои сообщения
    Вы не можете удалять свои сообщения
    Вы не можете голосовать в опросах
    Вы не можете прикреплять файлы к сообщениям
    Вы можете скачивать файлы