Всегда рабочее зеркало без VPN и Proxy просто перед .vidak.icu напиши любое слово или цифру, Пример http://2tsh.vidak.icu

Лицензия

MVO

1 сезон

1

1 сезон

iTunes

1 сезон

13

1 сезон

Deluxe

pack

Рекомендуем

Repack

30

ВАЖНО

RePack

MK11

RePack

jed

RePack

fifa19

RePack

RDR2

RePack

NEED FOR SPEED™ PAYBACK

Кинопоиск HD

6 сезон

 Острые козырьки 6 сезон

Все сериалы

все сериалы на PB.wtf

RePack

FAR CRY 5
  
Magnet ссылка

Glenn Hughes - Resonate - 2016/ FLAC/ image +.cue/ lossless/ Hard & Heavy pb.wtf

Glenn Hughes - Resonate - 2016 через торрент pb.wtf

Размер: 406 MB | Добавлен: 5 лет 8 мес. назад | Торрент скачан:18 раз
Смотреть онлайн Glenn Hughes - Resonate - 2016 | Скачать    Ребята, помогите собрать деньги на оплату серверов!!!

26-11-2016 20:14 Glenn Hughes - Resonate - 2016 Скачать торрент  


Glenn Hughes - Resonate


Год издания: 2016
Страна: UK
Жанр: Hard & Heavy
Продолжительность: 00:51:17
Лейбл издания: Irond Ltd
Страна-выпуска диска: Russia
Номер по каталогу: Irond CD 16-1895
Формат: FLAC
Битрейт аудио: Lossless
Тип рипа: image +.cue
Наличие сканов в содержимом раздачи: да

Легендарный бас-гитарист и вокалист, участвовавший в таких группах как Deep Purple, Black Sabbath, Black Country Communion, California Breed, выпустил свой новый сольный альбом «Resonate» 4 ноября на лейбле Frontiers Music Srl. Это первый сольный диск музыканта за 8 лет. Работа над релизом проходила в датском Копенгагене. В записи также приняли участие Сорен Андерсен (гитара), Понта Энгборг (ударные) и Лаклан Долей (клавишные). Вот что поведал сам Глен Хьюз: «Это, возможно, самая тяжелая запись, которую я когда-либо делал. Я не хочу никого пугать рогами и чертями: это не metal. Но это определенно чертовски тяжелая, плотная и темная музыка. На этой записи есть агрессия». Музыкант напомнил, что он никогда не выпускал одинаковых альбомов и каждый звучит по-своему. Он также добавил: «Это будет альбом, на котором полностью представлена моя музыка, музыка Глена Хьюза.


01.Heavy(3:23)
02.My Town(4:09)
03.Flow(4:39)
04.Let It Shine(4:51)
05.Steady(6:36)
06.God Of Money(5:07)
07.How Long(6:01)
08.When I Fall(3:59)
09.Landmines(4:27)
10.Stumble & Go(3:27)
11.Long Time Gone(4:38)

Exact Audio Copy V1.1 from 23. June 2015

EAC extraction logfile from 20. November 2016, 0:07

Glenn Hughes / Resonate

Used drive : PIONEER BD-RW BDR-209D Adapter: 0 ID: 5

Read mode : Secure
Utilize accurate stream : Yes
Defeat audio cache : Yes
Make use of C2 pointers : No

Read offset correction : 667
Overread into Lead-In and Lead-Out : No
Fill up missing offset samples with silence : Yes
Delete leading and trailing silent blocks : No
Null samples used in CRC calculations : Yes
Used interface : Installed external ASPI interface

Used output format : User Defined Encoder
Selected bitrate : 768 kBit/s
Quality : High
Add ID3 tag : No
Command line compressor : C:\Program Files (x86)\Exact Audio Copy\FLAC\FLAC.EXE
Additional command line options : -6 -V -T "ARTIST=%artist%" -T "TITLE=%title%" -T "ALBUM=%albumtitle%" -T "DATE=%year%" -T "TRACKNUMBER=%tracknr%" -T "GENRE=%genre%" -T "COMMENT=%comment%" -T "BAND=%albuminterpret%" -T "ALBUMARTIST=%albuminterpret%" -T "COMPOSER=%composer%" %haslyrics%--tag-from-file=LYRICS="%lyricsfile%"%haslyrics% -T "DISCNUMBER=%cdnumber%" -T "TOTALDISCS=%totalcds%" -T "TOTALTRACKS=%numtracks%" %hascover%--picture="%coverfile%"%hascover% %source% -o %dest%

TOC of the extracted CD

Track | Start | Length | Start sector | End sector
---------------------------------------------------------
1 | 0:00.00 | 3:22.60 | 0 | 15209
2 | 3:22.60 | 4:09.37 | 15210 | 33921
3 | 7:32.22 | 4:39.06 | 33922 | 54852
4 | 12:11.28 | 4:50.40 | 54853 | 76642
5 | 17:01.68 | 6:35.66 | 76643 | 106333
6 | 23:37.59 | 5:07.15 | 106334 | 129373
7 | 28:44.74 | 6:01.33 | 129374 | 156481
8 | 34:46.32 | 3:58.58 | 156482 | 174389
9 | 38:45.15 | 4:27.14 | 174390 | 194428
10 | 43:12.29 | 3:26.47 | 194429 | 209925
11 | 46:39.01 | 4:38.28 | 209926 | 230803

Range status and errors

Selected range

Filename E:\MUSIC\Glenn Hughes - Resonate.wav

Peak level 96.5 %
Extraction speed 7.8 X
Range quality 100.0 %
Test CRC 0A2BF30B
Copy CRC 0A2BF30B
Copy OK

No errors occurred

AccurateRip summary

Track 1 not present in database
Track 2 not present in database
Track 3 not present in database
Track 4 not present in database
Track 5 not present in database
Track 6 not present in database
Track 7 not present in database
Track 8 not present in database
Track 9 not present in database
Track 10 not present in database
Track 11 not present in database

None of the tracks are present in the AccurateRip database

End of status report
REM GENRE "Hard Rock"
REM DATE 2016
REM DISCID 860C050B
REM COMMENT "ExactAudioCopy v1.1"
PERFORMER "Glenn Hughes"
TITLE "Resonate"
FILE "Glenn Hughes - Resonate.flac" WAVE
TRACK 01 AUDIO
TITLE "01. Heavy"
PERFORMER "Glenn Hughes"
INDEX 01 00:00:00
TRACK 02 AUDIO
TITLE "02. My Town"
PERFORMER "Glenn Hughes"
INDEX 01 03:22:60
TRACK 03 AUDIO
TITLE "03. Flow"
PERFORMER "Glenn Hughes"
INDEX 01 07:32:22
TRACK 04 AUDIO
TITLE "04. Let It Shine"
PERFORMER "Glenn Hughes"
INDEX 01 12:11:28
TRACK 05 AUDIO
TITLE "05. Steady"
PERFORMER "Glenn Hughes"
INDEX 01 17:01:68
TRACK 06 AUDIO
TITLE "06. God Of Money"
PERFORMER "Glenn Hughes"
INDEX 01 23:37:59
TRACK 07 AUDIO
TITLE "07. How Long"
PERFORMER "Glenn Hughes"
INDEX 01 28:44:74
TRACK 08 AUDIO
TITLE "08. When I Fall"
PERFORMER "Glenn Hughes"
INDEX 01 34:46:32
TRACK 09 AUDIO
TITLE "09. Landmines"
PERFORMER "Glenn Hughes"
INDEX 01 38:45:15
TRACK 10 AUDIO
TITLE "10. Stumble & Go"
PERFORMER "Glenn Hughes"
INDEX 01 43:12:29
TRACK 11 AUDIO
TITLE "11. Long Time Gone"
PERFORMER "Glenn Hughes"
INDEX 01 46:39:01
Glenn Hughes: All Vocals, Bass Guitar, Acoustic Guitar
Søren Andersen: Guitars
Pontus Enborg: Drums & Percussion
Lachy Doley: Keyboards
Chad Smith (Red Hot Chili Peppers): Drums on “Heavy” & “Long Time Gone”


pb.wtf



Скачать Glenn Hughes - Resonate - 2016 через торрент http://i84.fastpic.ru/big/2016/1126/ca/d0dfa05b4c58d332cf56f9bcf4a4ceca.png Скачать, смотреть онлайн Glenn Hughes - Resonate - 2016 бесплантно в хорошем качестве Трэклист Heavy(3:23) My Town(4:09) Flow(4:39) Let It Shine(4:51) Steady(6:36) God Of Money(5:07) How Long(6:01) ... 10 10 1
Торрент: Зарегистрирован [2016-11-26 20:14] · скачан: 18 раз
Статус: √ проверено
Размер: 406 MB
Как cкачать? Как скачать Glenn Hughes - Resonate - 2016 через торрент | UTorrent

28-11-2019 20:33  

Отключить вcю реклaмy на сайте

    Дорогой пользователь! Огромная просьба, поблагодарите релизера, оцените раздачу и оставьте свои комментарий, если Вы скачали Glenn Hughes - Resonate - 2016 через торрент бесплатно!
    Комментировать посты могут только пользователи прошедшие не сложную регистрацию
    Показать сообщения:    

    Glenn Hughes - Resonate - 2016 через торрент
    Скачать бесплатно Glenn Hughes - Resonate - 2016
    Glenn Hughes - Resonate - 2016 скачать торрент
    Glenn Hughes - Resonate - 2016 смотреть онлайн
    Cкачать фильм Glenn Hughes - Resonate - 2016 бесплатно
    Glenn Hughes - Resonate - 2016 скачать торрент в хорошем качестве
    Glenn Hughes - Resonate - 2016 смотреть онлайн бесплатно в хорошем качестве


    Вы не можете начинать темы
    Вы не можете отвечать на сообщения
    Вы не можете редактировать свои сообщения
    Вы не можете удалять свои сообщения
    Вы не можете голосовать в опросах
    Вы не можете прикреплять файлы к сообщениям
    Вы можете скачивать файлы