2 сезон

iTunes

1 сезон

1

iTunes

iTunes

iTunes

1 сезон

RePack

30

ИГРА 18+

pack

ВАЖНО

!!Акция!!

Alien_RageХит недели

RePack

MK11
pack

Забери бонус

RePack

jed

!!Акция!!

Alien_Rage

RePack

fifa19

RePack

Assassins Creed: Odyssey

RePack

NEED FOR SPEED™ PAYBACK

4 сезон

9 сезон

Бесстыжие 9 сезон

Все сериалы

все сериалы на PB.wtf

RePack

FAR CRY 5
  

Коготь из Мавритании-2 / Серии: 1-4 из 4 (Наталья Хлопецкая) [2016,детектив, мелодрама, SATRip-AVC] pb.wtf

Коготь из Мавритании-2 через торрент pb.wtf

Размер: 1.91 GB | Добавлен: 3 года 11 мес. назад | Торрент скачан:184 раза
Скачать  

27-11-2016 00:39 Коготь из Мавритании-2 Скачать торрент  

Коготь из Мавритании-2


Год выпуска: 2016
Производство: Россия, Марс Медиа
Жанр: детектив, мелодрама
Продолжительность: 00:45:00
Перевод: Не требуется
Субтитры: нет



Режиссёр: Наталья Хлопецкая



В ролях: Марина Коняшкина, Сергей Галахов, Сергей Жарков, Илья Древнов, Сергей Петров, Сергей Кизас, Людмила Чурсина, Константин Чепурин

Описание: После нескольких месяцев затишья в столице возобновляются ритуальные убийства девушек. К расследованию подключается майор Александра Мур. Ей предстоит сработаться с новым напарником Дмитрием Роговым. Но есть задачка и посложнее – найти подход к профессору Шульцу, который отбывает наказание за пособничество в убийствах. Именно погибшего брата Шульца считали маньяком до возобновления серии. Становится ясно: родственник профессора, как минимум, не единственный виновный...








Релиз от:




Качество: SATRip-AVC
Формат: MKV
Видео кодек: H.264
Аудио кодек: AC3
Видео: MPEG4 Video (H264), 720x400, 25fps,1300 Kbps,bit/pixel 0.181
Аудио: AC3 48000Hz, stereo, 192kbps,2 ch


Общее
Уникальный идентификатор : 232819433637606239529233550577131281593 (0xAF276452C22C1B00A01D84BF96035CB9)
Полное имя : F:\Коготь из Мавритании-2\01 серия_Коготь из Мавритании-2_rip by_Aleksan55.mkv
Формат : Matroska
Версия формата : Version 2
Размер файла : 491 Мбайт
Продолжительность : 45 м.
Общий поток : 1494 Кбит/сек
Дата кодирования : UTC 2016-11-26 13:44:27
Программа кодирования : mkvmerge v7.8.0 ('River Man') 32bit built on Apr 3 2015 12:11:22
Библиотека кодирования : libebml v1.3.1 + libmatroska v1.4.2

Видео
Идентификатор : 1
Формат : AVC
Формат/Информация : Advanced Video Codec
Профиль формата : High@L3.1
Параметр CABAC формата : Да
Параметр ReFrames формата : 14 кадров
Идентификатор кодека : V_MPEG4/ISO/AVC
Продолжительность : 45 м.
Битрейт : 1300 Кбит/сек
Ширина : 720 пикселей
Высота : 400 пикселей
Соотношение сторон : 16:9
Режим частоты кадров : Постоянный
Частота кадров : 25,000 кадров/сек
Цветовое пространство : YUV
Субдискретизация насыщенности : 4:2:0
Битовая глубина : 8 бит
Тип развёртки : Прогрессивная
Бит/(Пиксели*Кадры) : 0.181
Размер потока : 418 Мбайт (85%)
Библиотека кодирования : x264 core 148 r2638 7599210
Настройки программы : cabac=1 / ref=14 / deblock=1:-1:-1 / analyse=0x3:0x133 / me=umh / subme=9 / psy=1 / psy_rd=1.00:0.15 / mixed_ref=0 / me_range=32 / chroma_me=1 / trellis=2 / 8x8dct=1 / cqm=0 / deadzone=21,11 / fast_pskip=0 / chroma_qp_offset=-3 / threads=2 / lookahead_threads=3 / sliced_threads=0 / nr=0 / decimate=0 / interlaced=0 / bluray_compat=0 / constrained_intra=0 / bframes=14 / b_pyramid=2 / b_adapt=1 / b_bias=0 / direct=3 / weightb=1 / open_gop=0 / weightp=2 / keyint=250 / keyint_min=25 / scenecut=40 / intra_refresh=0 / rc_lookahead=60 / rc=2pass / mbtree=1 / bitrate=1300 / ratetol=1.0 / qcomp=0.80 / qpmin=0 / qpmax=40 / qpstep=4 / cplxblur=20.0 / qblur=0.5 / ip_ratio=1.40 / aq=1:1.20
Default : Да
Forced : Нет
Цветовой диапазон : Limited
Основные цвета : BT.601 PAL
Характеристики трансфера : BT.470 System B, BT.470 System G
Коэффициенты матрицы : BT.601

Аудио
Идентификатор : 2
Формат : AC-3
Формат/Информация : Audio Coding 3
Расширение режима : CM (complete main)
Параметр Endianness формата : Big
Идентификатор кодека : A_AC3
Продолжительность : 45 м.
Вид битрейта : Постоянный
Битрейт : 192 Кбит/сек
Каналы : 2 канала
Расположение каналов : Front: L R
Частота : 48,0 КГц
Метод сжатия : С потерями
Размер потока : 63,1 Мбайт (13%)
Default : Да
Forced : Нет


Рекламы нет.pb.wtf



Скачать Коготь из Мавритании-2 через торрент http://s018.radikal.ru/i523/1611/ba/d77d6f43f44b.png Скачать фильм Коготь из Мавритании-2 через торрент бесплантно в хорошем качестве Описание: После нескольких месяцев затишья в столице возобновляются ритуальные убийства девушек. К расследованию подключается майор ... 9.5 10 8
Торрент: Зарегистрирован [2016-11-27 00:39] · скачан: 184 раз
Статус: √ проверено
Размер: 1.91 GB
Как cкачать? Как скачать Коготь из Мавритании-2 через торрент | qTorrent

28-11-2019 20:33  

Отключить всю рекламу на сайте

    Дорогой пользователь! Огромная просьба, поблагодарите релизера, оцените раздачу и оставьте свои комментарий, если Вы скачали Коготь из Мавритании-2 через торрент бесплатно! Внесите свою лепту в развитие PiratBit!
    Комментировать посты могут только пользователи прошедшие не сложную регистрацию
    Показать сообщения:    

    Коготь из Мавритании-2 через торрент
    Скачать бесплатно Коготь из Мавритании-2
    Коготь из Мавритании-2 скачать торрент
    Коготь из Мавритании-2 смотреть онлайн
    Cкачать фильм Коготь из Мавритании-2 бесплатно
    Коготь из Мавритании-2 скачать торрент в хорошем качестве
    Коготь из Мавритании-2 смотреть онлайн бесплатно в хорошем качестве


    Вы не можете начинать темы
    Вы не можете отвечать на сообщения
    Вы не можете редактировать свои сообщения
    Вы не можете удалять свои сообщения
    Вы не можете голосовать в опросах
    Вы не можете прикреплять файлы к сообщениям
    Вы можете скачивать файлы