Ссылка на приватное зеркало нашего сайта всего за 1$. Внимание количество ограничено!!!

2 сезон

iTunes

1 сезон

1

iTunes

iTunes

iTunes

1 сезон

RePack

30

ИГРА 18+

pack

ВАЖНО

!!Акция!!

Alien_RageХит недели

RePack

MK11
pack

Забери бонус

RePack

jed

!!Акция!!

Alien_Rage

RePack

fifa19

RePack

Assassins Creed: Odyssey

RePack

NEED FOR SPEED™ PAYBACK

4 сезон

9 сезон

Бесстыжие 9 сезон

Все сериалы

все сериалы на PB.wtf

RePack

FAR CRY 5
  

Плохой Санта / Bad Santa (Терри Цвигофф / Terry Zwigoff) [2003, Германия, США, драма, комедия, криминал, BDRip 1080p] DUB, MVO, AVO, VO, ENG pb.wtf

Плохой Санта через торрент pb.wtf

Размер: 15.13 GB | Добавлен: 3 года 10 мес. назад | Торрент скачан:136 раз
Скачать  

27-11-2016 05:29 Плохой Санта Скачать торрент  

Плохой Санта / Bad Santa
«Давайте Пошалим на этих праздниках»


  • Год выпуска: 2003
  • Страна: Германия, США
  • Жанр: драма, комедия, криминал
  • Продолжительность: 01:39:16
  • Перевод: Профессиональный (многоголосый, Любительский (одноголосый), Дубляж - [Лицензия], Авторский (одноголосый)
  • Субтитры: русские (forced, на расширенные эпизоды), русские (full), русские (Гоблин), русские (Stevvie), английские (Full)
  • Режиссер: Терри Цвигофф / Terry Zwigoff
  • В ролях:

    Билли Боб Торнтон (Willie), Тони Кокс (Marcus), Бретт Келли (The Kid), Лорен Грэм (Sue), Лорен Том (Lois), Берни Мак (Gin), Джон Риттер (Bob Chipeska), Аджай Найду (Hindustani Troublemaker), Лорна Скотт (Milwaukee Mother), Харрисон Бикер (Milwaukee Boy), Алекс Борштейн (Milwaukee Mom with Photo), Александра Корхан (Girl on Santa's Lap)


  • Вилли - необычный Санта-Клаус. Раз в год на Рождество он вместе со своим напарником грабит очередной универмаг. К тому же в прошлом он отсидел в тюрьме, был не единожды женат, а ныне Вилли - злостный бабник и пропойца. Он по-настоящему плохой, невыносимый Санта! Но нашелся мальчуган, который все-таки в него поверил. И Вилли придется творить настоящие чудеса, чтоб на сей раз довести задуманное до конца!
  • Рейтинг:



  • Качество: BDRip 1080p
  • Формат: :MKV
  • Видео кодек: AVC
  • Аудио кодек: AC3, DTS
  • Видео: 1920x1040 (1.85:1), 15148 kbps, 23,976 fps, 0,316 bpp
  • Аудио №1: русский / 5.1 / 48 kHz / 754 kbps / 24 bit |Дубляж + VO (Jakob Bellman на расширенные эпизоды)|
  • Аудио №2: русский / 5.1 / 48 kHz / 384 kbps / |Дубляж + Sub (на расширенные эпизоды)|
  • Аудио №3: русский / 2.0 / 48 kHz / 192 kbps / |Многоголосый закадровый|
  • Аудио №4: русский / 5.1 / 48 kHz / 1509 kbps / 16 bit |Одноголосый закадровый, Гоблин|
  • Аудио №5: русский / 5.1 / 48 kHz / 1509 kbps / 16 bit |Одноголосый закадровый, A. Карповский|
  • Аудио №6: русский / 5.1 / 48 kHz / 384 kbps / |Jakob Bellman|
  • Аудио №7: английский / 5.1 / 48 kHz / 1509 kbps / 16 bit

    General
    Unique ID : 185280312540034765362259605767401415924 (0x8B63B0B11E925F45AFF2236DA522A4F4)
    Complete name : K:\Bad.Santa.2003.1080p.BDRip.6xRus.Eng.Sub.mkv
    Format : Matroska
    Format version : Version 2
    File size : 15.1 GiB
    Duration : 1 h 39 min
    Overall bit rate : 21.8 Mb/s
    Encoded date : UTC 2015-12-31 09:29:14
    Writing application : mkvmerge v8.3.0 ('Over the Horizon') 64bit
    Writing library : libebml v1.3.1 + libmatroska v1.4.2
    Cover : Yes
    Attachments : cover.jpg

    Video
    ID : 1
    Format : AVC
    Format/Info : Advanced Video Codec
    Format profile : High@L4.1
    Format settings, CABAC : Yes
    Format settings, ReFrames : 4 frames
    Codec ID : V_MPEG4/ISO/AVC
    Duration : 1 h 39 min
    Bit rate : 15.1 Mb/s
    Width : 1 920 pixels
    Height : 1 040 pixels
    Display aspect ratio : 1.85:1
    Frame rate mode : Constant
    Frame rate : 23.976 (24000/1001) FPS
    Color space : YUV
    Chroma subsampling : 4:2:0
    Bit depth : 8 bits
    Scan type : Progressive
    Bits/(Pixel*Frame) : 0.316
    Stream size : 10.5 GiB (69%)
    Title : Bad.Santa.2003.1080p.BluRay.DTS.x264-HDMaNiAcS
    Writing library : x264 core 148 r2638 7599210
    Encoding settings : cabac=1 / ref=4 / deblock=1:-3:-3 / analyse=0x3:0x133 / me=umh / subme=10 / psy=1 / psy_rd=1.00:0.00 / mixed_ref=1 / me_range=32 / chroma_me=1 / trellis=2 / 8x8dct=1 / cqm=0 / deadzone=21,11 / fast_pskip=0 / chroma_qp_offset=-2 / threads=32 / lookahead_threads=8 / sliced_threads=0 / nr=0 / decimate=0 / interlaced=0 / bluray_compat=0 / constrained_intra=0 / bframes=11 / b_pyramid=2 / b_adapt=2 / b_bias=0 / direct=3 / weightb=1 / open_gop=0 / weightp=2 / keyint=240 / keyint_min=23 / scenecut=40 / intra_refresh=0 / rc_lookahead=125 / rc=crf / mbtree=0 / crf=15.7 / qcomp=0.60 / qpmin=0 / qpmax=69 / qpstep=4 / vbv_maxrate=62500 / vbv_bufsize=78125 / crf_max=0.0 / nal_hrd=none / filler=0 / ip_ratio=1.40 / pb_ratio=1.30 / aq=1:0.80
    Language : English
    Default : Yes
    Forced : No

    Audio #1
    ID : 2
    Format : DTS
    Format/Info : Digital Theater Systems
    Mode : 16
    Format settings, Endianness : Big
    Codec ID : A_DTS
    Duration : 1 h 39 min
    Bit rate mode : Constant
    Bit rate : 755 kb/s
    Channel(s) : 6 channels
    Channel positions : Front: L C R, Side: L R, LFE
    Sampling rate : 48.0 kHz
    Frame rate : 93.750 FPS (512 spf)
    Bit depth : 24 bits
    Compression mode : Lossy
    Stream size : 536 MiB (3%)
    Title : Дубляж + VO (Jakob Bellman на расширенные эпизоды)
    Language : Russian
    Default : Yes
    Forced : No

    Audio #2
    ID : 3
    Format : AC-3
    Format/Info : Audio Coding 3
    Mode extension : CM (complete main)
    Format settings, Endianness : Big
    Codec ID : A_AC3
    Duration : 1 h 39 min
    Bit rate mode : Constant
    Bit rate : 384 kb/s
    Channel(s) : 6 channels
    Channel positions : Front: L C R, Side: L R, LFE
    Sampling rate : 48.0 kHz
    Frame rate : 31.250 FPS (1536 spf)
    Compression mode : Lossy
    Stream size : 273 MiB (2%)
    Title : Дубляж + Sub (на расширенные эпизоды)
    Language : Russian
    Default : No
    Forced : No

    Audio #3
    ID : 4
    Format : AC-3
    Format/Info : Audio Coding 3
    Mode extension : CM (complete main)
    Format settings, Endianness : Big
    Codec ID : A_AC3
    Duration : 1 h 39 min
    Bit rate mode : Constant
    Bit rate : 192 kb/s
    Channel(s) : 2 channels
    Channel positions : Front: L R
    Sampling rate : 48.0 kHz
    Frame rate : 31.250 FPS (1536 spf)
    Compression mode : Lossy
    Stream size : 136 MiB (1%)
    Title : Многоголосый закадровый
    Language : Russian
    Default : No
    Forced : No

    Audio #4
    ID : 5
    Format : DTS
    Format/Info : Digital Theater Systems
    Mode : 16
    Format settings, Endianness : Big
    Codec ID : A_DTS
    Duration : 1 h 39 min
    Bit rate mode : Constant
    Bit rate : 1 509 kb/s
    Channel(s) : 6 channels
    Channel positions : Front: L C R, Side: L R, LFE
    Sampling rate : 48.0 kHz
    Frame rate : 93.750 FPS (512 spf)
    Bit depth : 16 bits
    Compression mode : Lossy
    Stream size : 1.05 GiB (7%)
    Title : Одноголосый закадровый, Гоблин
    Language : Russian
    Default : No
    Forced : No

    Audio #5
    ID : 6
    Format : DTS
    Format/Info : Digital Theater Systems
    Mode : 16
    Format settings, Endianness : Big
    Codec ID : A_DTS
    Duration : 1 h 39 min
    Bit rate mode : Constant
    Bit rate : 1 509 kb/s
    Channel(s) : 6 channels
    Channel positions : Front: L C R, Side: L R, LFE
    Sampling rate : 48.0 kHz
    Frame rate : 93.750 FPS (512 spf)
    Bit depth : 16 bits
    Compression mode : Lossy
    Stream size : 1.05 GiB (7%)
    Title : Одноголосый закадровый, A. Карповский
    Language : Russian
    Default : No
    Forced : No

    Audio #6
    ID : 7
    Format : AC-3
    Format/Info : Audio Coding 3
    Mode extension : CM (complete main)
    Format settings, Endianness : Big
    Codec ID : A_AC3
    Duration : 1 h 39 min
    Bit rate mode : Constant
    Bit rate : 384 kb/s
    Channel(s) : 6 channels
    Channel positions : Front: L C R, Side: L R, LFE
    Sampling rate : 48.0 kHz
    Frame rate : 31.250 FPS (1536 spf)
    Compression mode : Lossy
    Stream size : 273 MiB (2%)
    Title : Одноголосый закадровый, Jakob Bellman
    Language : Russian
    Default : No
    Forced : No

    Audio #7
    ID : 8
    Format : DTS
    Format/Info : Digital Theater Systems
    Mode : 16
    Format settings, Endianness : Big
    Codec ID : A_DTS
    Duration : 1 h 39 min
    Bit rate mode : Constant
    Bit rate : 1 509 kb/s
    Channel(s) : 6 channels
    Channel positions : Front: L C R, Side: L R, LFE
    Sampling rate : 48.0 kHz
    Frame rate : 93.750 FPS (512 spf)
    Bit depth : 16 bits
    Compression mode : Lossy
    Stream size : 1.05 GiB (7%)
    Title : Original
    Language : English
    Default : No
    Forced : No

    Text #1
    ID : 9
    Format : UTF-8
    Codec ID : S_TEXT/UTF8
    Codec ID/Info : UTF-8 Plain Text
    Title : forced, на расширенные эпизоды
    Language : Russian
    Default : Yes
    Forced : No

    Text #2
    ID : 10
    Format : UTF-8
    Codec ID : S_TEXT/UTF8
    Codec ID/Info : UTF-8 Plain Text
    Title : full
    Language : Russian
    Default : No
    Forced : No

    Text #3
    ID : 11
    Format : UTF-8
    Codec ID : S_TEXT/UTF8
    Codec ID/Info : UTF-8 Plain Text
    Title : Гоблин
    Language : Russian
    Default : No
    Forced : No

    Text #4
    ID : 12
    Format : UTF-8
    Codec ID : S_TEXT/UTF8
    Codec ID/Info : UTF-8 Plain Text
    Title : Stevvie
    Language : Russian
    Default : No
    Forced : No

    Text #5
    ID : 13
    Format : UTF-8
    Codec ID : S_TEXT/UTF8
    Codec ID/Info : UTF-8 Plain Text
    Title : Full
    Language : English
    Default : No
    Forced : No

    Menu
    00:00:00.000 : en:Christmas In Milwaukee
    00:07:31.326 : en:On The Wagon?
    00:12:02.722 : en:Florida Robbery
    00:16:09.927 : en:"#%&^-Stick?"
    00:19:35.424 : en:"What D'You Want?"
    00:23:33.537 : en:"Prove It"
    00:28:09.354 : en:"Is Granny Spry?"
    00:31:41.566 : en:Keeping A Low Profile
    00:37:10.895 : en:Santa's New Hideout
    00:44:36.132 : en:"Wanna Play Again?"
    00:48:47.299 : en:"That's Gonna Sting A Little"
    00:53:22.408 : en:"He's Clean"
    00:58:43.311 : en:Negotiating
    01:04:03.465 : en:Turning A Corner?
    01:09:16.944 : en:Boxing And The Wooden Pickle
    01:16:07.730 : en:A Merry Chrismas Eve
    01:21:59.081 : en:The Kitnerboy Redoubt
    01:27:08.014 : en:"For Christ's Sake, It's Christmas"
    01:35:02.113 : en:End Credits



    Скриншоты:



    pb.wtf



  • Скачать Плохой Санта через торрент http://i84.fastpic.ru/big/2016/1127/ea/2e0e1d92c87273a25e45bc850d0712ea.jpg Скачать фильм Плохой Санта через торрент бесплантно в хорошем качестве qw.png Вилли - необычный Санта-Клаус. Раз в год на Рождество он вместе со своим напарником грабит очередной универмаг. К тому же в ... 10 10 6
    Торрент: Зарегистрирован [2016-11-27 05:29] · скачан: 136 раз
    Статус: √ проверено
    Размер: 15.13 GB
    Как cкачать? Как скачать Плохой Санта через торрент | qTorrent

    28-11-2019 20:33  

    Отключить всю рекламу на сайте

    27-11-2016 05:39 Плохой Санта Скачать торрент  

    Перед "Плохой Санта 2" решил первого глянуть)


    Плохой Санта 2pb.wtf



    27-11-2016 06:47 Плохой Санта Скачать торрент  

    То что надо для поднятия новогоднего настроенияpb.wtf



    27-11-2016 09:03 Плохой Санта Скачать торрент  

    Смотреть только в гоблине, это шедевр!pb.wtf



    24-12-2017 07:25 Плохой Санта Скачать торрент  

    tolyan093 писал(а):

    То что надо для поднятия новогоднего настроения

    Полностью согласен!))))pb.wtf



      Дорогой пользователь! Огромная просьба, поблагодарите релизера, оцените раздачу и оставьте свои комментарий, если Вы скачали Плохой Санта через торрент бесплатно! Внесите свою лепту в развитие PiratBit!
      Комментировать посты могут только пользователи прошедшие не сложную регистрацию
      Показать сообщения:    

      Плохой Санта через торрент
      Скачать бесплатно Плохой Санта
      Плохой Санта скачать торрент
      Плохой Санта смотреть онлайн
      Cкачать фильм Плохой Санта бесплатно
      Плохой Санта скачать торрент в хорошем качестве
      Плохой Санта смотреть онлайн бесплатно в хорошем качестве


      Вы не можете начинать темы
      Вы не можете отвечать на сообщения
      Вы не можете редактировать свои сообщения
      Вы не можете удалять свои сообщения
      Вы не можете голосовать в опросах
      Вы не можете прикреплять файлы к сообщениям
      Вы можете скачивать файлы