Ссылка на приватное зеркало нашего сайта всего за 1$. Внимание количество ограничено!!!

2 сезон

iTunes

1 сезон

1

iTunes

iTunes

iTunes

1 сезон

RePack

30

ИГРА 18+

pack

ВАЖНО

!!Акция!!

Alien_RageХит недели

RePack

MK11
pack

Забери бонус

RePack

jed

!!Акция!!

Alien_Rage

RePack

fifa19

RePack

Assassins Creed: Odyssey

RePack

NEED FOR SPEED™ PAYBACK

4 сезон

9 сезон

Бесстыжие 9 сезон

Все сериалы

все сериалы на PB.wtf

RePack

FAR CRY 5
  

Во власти Луны / Moonstruck (Норман Джуисон) [1987, драма, мелодрама, комедия, BDRip 1080p by msltel] MVO, 2 x AVO pb.wtf

Во власти Луны через торрент pb.wtf

Размер: 15.08 GB | Добавлен: 3 года 10 мес. назад | Торрент скачан:13 раз
Скачать  

27-11-2016 08:40 Во власти Луны Скачать торрент  

Название: Во власти Луны
Оригинальное название: Moonstruck
Год выпуска: 1987
Страна: США
Жанр: драма, мелодрама, комедия
Продолжительность: 01:41:55
Перевод: профессиональный многоголосый, авторский

Режиссёр: Норман Джуисон

В ролях: Шер, Николас Кейдж, Винсент Гардения, Олимпия Дукакис, Дэнни Айелло, Джули Бовассо, Джон Махони, Луис Гасс, Фёдор Шаляпин мл., Анита Джиллет, Нада Деспотович, Джо Грифази, Джина ДеАнджелес, Робин Бартлетт, Хелен Хэнфт, Дэвид С. Ховард, Роберт Уайл, Эми Акино, Тони Азито, Фрэнк Джио, Энн МакДонаф, Джон Кристофер Джонс, Лиза Ховард, Синтия Дэйл, Энтони Мессури, Марта Коллинз, Джон Фаннинг, Николас Паско, Аль Терриен, Джилберто Годой, Луис Ди Бьянко, Бетти Орсатти, Майкл Барбаро, Коррадо Джина, Томми Холлис, Мэтт Майерс, Майкл Данстер, Стелла Бруно, Мими Чеккини, Тим Кеттинг, Герард Флэннери, Роберт Пейсон, Катрин Скорсезе

Описание: Когда над городом восходит полная Луна, странные вещи творятся с почтенным итальянским семейством, в котором дочь накануне своего второго замужества вдруг понимает, что любит другого, отец не верен своей супруге, а за последней ухаживает посторонний мужчина. При свете дня все эти люди сохраняют благоразумие и владеют своими чувствами, однако с приходом Луны ни за кого из них нельзя поручиться...



Качество: BDRip 1080p Сравнение с исходником
Формат: MKV
Видео: MPEG-4 AVC, 15.1 Mбит/с, 1920x1038, 23,976 кадра/с
Аудио 1: русский, DTS, 1509 kbps, 6 ch, 48 kHz [профессиональный многоголосый, R5]
Аудио 2: русский, DTS, 1509 kbps, 6 ch, 48 kHz [авторский, Вартан Дохалов]
Аудио 3: русский, DTS, 1509 kbps, 6 ch, 48 kHz [авторский, Алексей Михалёв]
Аудио 4: английский, DTS, 1509 kbps, 6 ch, 48 kHz [оригинал]
Субтитры 1: русские (форсированные)
Субтитры 2: русские
Субтитры 3: английские (для слабослышащих)
Имеются неименованные главы/чаптеры.
Общее
Уникальный идентификатор : 177636505090677755576208293187341120518 (0x85A38BE34C4DD8408BCC1429A879F406)
Полное имя : D:\Video\Во власти Луны.1987.BDRip.1080p by msltel.mkv
Формат : Matroska
Версия формата : Version 4 / Version 2
Размер файла : 15,1 Гбайт
Продолжительность : 1 ч. 41 м.
Общий поток : 21,2 Мбит/сек
Название фильма : Rip by msltel
Дата кодирования : UTC 2016-11-27 07:02:49
Программа кодирования : mkvmerge v8.2.0 ('World of Adventure') 64bit
Библиотека кодирования : libebml v1.3.1 + libmatroska v1.4.2

Видео
Идентификатор : 1
Формат : AVC
Формат/Информация : Advanced Video Codec
Профиль формата : High@L4.1
Параметр CABAC формата : Да
Параметр ReFrames формата : 4 кадра
Идентификатор кодека : V_MPEG4/ISO/AVC
Продолжительность : 1 ч. 41 м.
Битрейт : 15,1 Мбит/сек
Ширина : 1920 пикселей
Высота : 1038 пикселей
Соотношение сторон : 1,85:1
Режим частоты кадров : Постоянный
Частота кадров : 23,976 (24000/1001) кадра/сек
Цветовое пространство : YUV
Субдискретизация насыщенности : 4:2:0
Битовая глубина : 8 бит
Тип развёртки : Прогрессивная
Бит/(Пиксели*Кадры) : 0.317
Размер потока : 10,8 Гбайт (71%)
Библиотека кодирования : x264 core 146 r2538 121396c
Настройки программы : cabac=1 / ref=4 / deblock=1:-1:-1 / analyse=0x3:0x113 / me=umh / subme=9 / psy=1 / psy_rd=1.00:0.15 / mixed_ref=1 / me_range=32 / chroma_me=1 / trellis=1 / 8x8dct=1 / cqm=0 / deadzone=21,11 / fast_pskip=0 / chroma_qp_offset=-3 / threads=6 / lookahead_threads=1 / sliced_threads=0 / nr=0 / decimate=1 / interlaced=0 / bluray_compat=0 / constrained_intra=0 / bframes=11 / b_pyramid=2 / b_adapt=2 / b_bias=0 / direct=1 / weightb=1 / open_gop=0 / weightp=2 / keyint=230 / keyint_min=23 / scenecut=40 / intra_refresh=0 / rc_lookahead=40 / rc=crf / mbtree=0 / crf=18.7 / qcomp=0.60 / qpmin=0 / qpmax=69 / qpstep=4 / vbv_maxrate=50000 / vbv_bufsize=62500 / crf_max=0.0 / nal_hrd=none / filler=0 / ip_ratio=1.40 / pb_ratio=1.30 / aq=1:1.00
Язык : English
Default : Да
Forced : Нет

Аудио #1
Идентификатор : 2
Формат : DTS
Формат/Информация : Digital Theater Systems
Режим : 16
Параметр Endianness формата : Big
Идентификатор кодека : A_DTS
Продолжительность : 1 ч. 41 м.
Вид битрейта : Постоянный
Битрейт : 1509 Кбит/сек
Каналы : 6 каналов
Расположение каналов : Front: L C R, Side: L R, LFE
Частота : 48,0 КГц
Частота кадров : 93,750 кадра/сек (512 spf)
Битовая глубина : 24 бит
Метод сжатия : С потерями
Размер потока : 1,07 Гбайт (7%)
Заголовок : MVO (R5)
Язык : Russian
Default : Да
Forced : Нет

Аудио #2
Идентификатор : 3
Формат : DTS
Формат/Информация : Digital Theater Systems
Режим : 16
Параметр Endianness формата : Big
Идентификатор кодека : A_DTS
Продолжительность : 1 ч. 41 м.
Вид битрейта : Постоянный
Битрейт : 1509 Кбит/сек
Каналы : 6 каналов
Расположение каналов : Front: L C R, Side: L R, LFE
Частота : 48,0 КГц
Частота кадров : 93,750 кадра/сек (512 spf)
Битовая глубина : 24 бит
Метод сжатия : С потерями
Размер потока : 1,07 Гбайт (7%)
Заголовок : AVO (Вартан Дохалов)
Язык : Russian
Default : Нет
Forced : Нет

Аудио #3
Идентификатор : 4
Формат : DTS
Формат/Информация : Digital Theater Systems
Режим : 16
Параметр Endianness формата : Big
Идентификатор кодека : A_DTS
Продолжительность : 1 ч. 41 м.
Вид битрейта : Постоянный
Битрейт : 1509 Кбит/сек
Каналы : 6 каналов
Расположение каналов : Front: L C R, Side: L R, LFE
Частота : 48,0 КГц
Частота кадров : 93,750 кадра/сек (512 spf)
Битовая глубина : 24 бит
Метод сжатия : С потерями
Размер потока : 1,07 Гбайт (7%)
Заголовок : AVO (Алексей Михалёв)
Язык : Russian
Default : Нет
Forced : Нет

Аудио #4
Идентификатор : 5
Формат : DTS
Формат/Информация : Digital Theater Systems
Режим : 16
Параметр Endianness формата : Big
Идентификатор кодека : A_DTS
Продолжительность : 1 ч. 41 м.
Вид битрейта : Постоянный
Битрейт : 1509 Кбит/сек
Каналы : 6 каналов
Расположение каналов : Front: L C R, Side: L R, LFE
Частота : 48,0 КГц
Частота кадров : 93,750 кадра/сек (512 spf)
Битовая глубина : 24 бит
Метод сжатия : С потерями
Размер потока : 1,07 Гбайт (7%)
Заголовок : original
Язык : English
Default : Нет
Forced : Нет

Текст #1
Идентификатор : 6
Формат : UTF-8
Идентификатор кодека : S_TEXT/UTF8
Идентификатор кодека/Информация : UTF-8 Plain Text
Продолжительность : 2 м. 24 с.
Битрейт : 28 бит/сек
Count of elements : 10
Размер потока : 520 байт (0%)
Заголовок : русские (надписи)
Язык : Russian
Default : Да
Forced : Да

Текст #2
Идентификатор : 7
Формат : UTF-8
Идентификатор кодека : S_TEXT/UTF8
Идентификатор кодека/Информация : UTF-8 Plain Text
Продолжительность : 1 ч. 37 м.
Битрейт : 92 бит/сек
Count of elements : 1178
Размер потока : 66,5 Кбайт (0%)
Заголовок : русские
Язык : Russian
Default : Нет
Forced : Нет

Текст #3
Идентификатор : 8
Формат : UTF-8
Идентификатор кодека : S_TEXT/UTF8
Идентификатор кодека/Информация : UTF-8 Plain Text
Продолжительность : 1 ч. 40 м.
Битрейт : 60 бит/сек
Count of elements : 1355
Размер потока : 44,7 Кбайт (0%)
Заголовок : английские (для слабослышащих)
Язык : English
Default : Нет
Forced : Нет

Меню
00:00:00.000 : :Chapter 01
00:04:12.168 : :Chapter 02
00:13:40.653 : :Chapter 03
00:25:29.527 : :Chapter 04
00:34:02.790 : :Chapter 05
00:40:05.069 : :Chapter 06
00:47:43.777 : :Chapter 07
00:57:35.702 : :Chapter 08
01:01:50.331 : :Chapter 09
01:09:34.086 : :Chapter 10
01:19:16.877 : :Chapter 11
01:26:02.573 : :Chapter 12
01:41:55.400 : :Chapter 13

ВКОНТАКТЕpb.wtf



Скачать Во власти Луны через торрент http://s019.radikal.ru/i610/1611/e8/c06ba0d1f0d3.jpg Скачать фильм Во власти Луны через торрент бесплантно в хорошем качестве Описание: Когда над городом восходит полная Луна, странные вещи творятся с почтенным итальянским семейством, в котором дочь накануне своего ... 10 10 1
Info! Золотая раздача, скачанное не засчитывается.
Торрент: Зарегистрирован [2016-11-27 08:40] · скачан: 13 раз
Статус: √ проверено
Размер: 15.08 GB
Как cкачать? Как скачать Во власти Луны через торрент | qTorrent

% Раздел Тема Автор DL S | L
Фильмы [HD 720p, 1080p] (Хороший звук DUB, MVO) [ 5.53 GB ] Во власти Луны / Moonstruck [1987 BDRip 720p by msltel] MVO 2 x AVO msltel Скачать
1 | 0

28-11-2019 20:33  

Отключить всю рекламу на сайте

    Дорогой пользователь! Огромная просьба, поблагодарите релизера, оцените раздачу и оставьте свои комментарий, если Вы скачали Во власти Луны через торрент бесплатно! Внесите свою лепту в развитие PiratBit!
    Комментировать посты могут только пользователи прошедшие не сложную регистрацию
    Показать сообщения:    

    Во власти Луны через торрент
    Скачать бесплатно Во власти Луны
    Во власти Луны скачать торрент
    Во власти Луны смотреть онлайн
    Cкачать фильм Во власти Луны бесплатно
    Во власти Луны скачать торрент в хорошем качестве
    Во власти Луны смотреть онлайн бесплатно в хорошем качестве


    Вы не можете начинать темы
    Вы не можете отвечать на сообщения
    Вы не можете редактировать свои сообщения
    Вы не можете удалять свои сообщения
    Вы не можете голосовать в опросах
    Вы не можете прикреплять файлы к сообщениям
    Вы можете скачивать файлы