Ссылка на приватное зеркало нашего сайта всего за 1$. Внимание количество ограничено!!!

2 сезон

iTunes

1 сезон

1

iTunes

iTunes

iTunes

1 сезон

RePack

30

ИГРА 18+

pack

ВАЖНО

!!Акция!!

Alien_RageХит недели

RePack

MK11
pack

Забери бонус

RePack

jed

!!Акция!!

Alien_Rage

RePack

fifa19

RePack

Assassins Creed: Odyssey

RePack

NEED FOR SPEED™ PAYBACK

4 сезон

9 сезон

Бесстыжие 9 сезон

Все сериалы

все сериалы на PB.wtf

RePack

FAR CRY 5
  

Золотой транзит / 1-2 серии из 2 (Алексей Козлов) [2016 г., боевик, приключения, SATRip] pb.wtf

Золотой транзит через торрент pb.wtf

Размер: 1.35 GB | Добавлен: 3 года 10 мес. назад | Торрент скачан:359 раз
Скачать  

27-11-2016 14:53 Золотой транзит Скачать торрент  

Золотой транзитГод выпуска: 2016
Страна: Россия
Жанр: боевик, приключения
Продолжительность: 00:49:46 + 00:46:49
Перевод: Не требуется
Субтитры: отсутствуют

Режиссер: Алексей Козлов

В ролях:

Александр Устюгов, Алексей Манцыгин, Вадим Андреев, Яков Шамшин, Любовь Константинова, Владимир Постников, Даниил Кокин, Иван Немцов, Игорь Рудинский, Николай Пономаренко (II), Александр Соколов (XV), Мария Андрюшина, Алексей Одинг

Описание:

1924 год. В маленький городок Чуйск на границе с Китаем возвращается бывший золотопромышленник Астахов, сбежавший во время революции. Сопровождает его чекист Пашка Самсонов. Астахов должен указать, где было спрятано все его золото, при этом 25 процентов он оставляет себе, а остальное отдает государству. Правда, мало кто знает, что на самом деле Астахов приехал не столько за золотом, сколько за дочерью Машей, с которой ему пришлось расстаться семь лет назад. Астахов показывает тайник, мешки складируют в хранилище бывшего банка. Однако ночью драгоценный металл бесследно исчезает!

Качество: SATRip
Формат: AVI
Видео кодек: XviD
Аудио кодек: MP3

Видео: 720x400 (16:9), 25 fps, XviD build 73 ~1806 kbps avg, 0.251 bit/pixel
Аудио#1: 48 kHz, MPEG Layer 3, 2 ch, ~192.00 kbps avg
Общее
Полное имя : C:\Users\Downloads\Золотой транзит 2016 SATRip\Золотой транзит Серия 1 2016 SATRip.avi
Формат : AVI
Формат/Информация : Audio Video Interleave
Размер файла : 715 Мбайт
Продолжительность : 49 м.
Общий поток : 2008 Кбит/сек
Программа кодирования : VirtualDubMod 1.5.10.3 (build 2550/release)
Библиотека кодирования : VirtualDubMod build 2550/release

Видео
Идентификатор : 0
Формат : MPEG-4 Visual
Профиль формата : Advanced Simple@L5
Параметр BVOP формата : 2
Параметр QPel формата : Нет
Параметр GMC формата : Без точки перехода
Параметр матрицы формата : Default (MPEG)
Идентификатор кодека : XVID
Идентификатор кодека/Подсказка : XviD
Продолжительность : 49 м.
Битрейт : 1806 Кбит/сек
Ширина : 720 пикселей
Высота : 400 пикселей
Соотношение сторон : 16:9
Частота кадров : 25,000 кадров/сек
Цветовое пространство : YUV
Субдискретизация насыщенности : 4:2:0
Битовая глубина : 8 бит
Тип развёртки : Прогрессивная
Метод сжатия : С потерями
Бит/(Пиксели*Кадры) : 0.251
Размер потока : 643 Мбайт (90%)
Библиотека кодирования : XviD 73

Аудио
Идентификатор : 1
Формат : MPEG Audio
Версия формата : Version 1
Профиль формата : Layer 3
Режим : Joint stereo
Идентификатор кодека : 55
Идентификатор кодека/Подсказка : MP3
Продолжительность : 49 м.
Вид битрейта : Постоянный
Битрейт : 192 Кбит/сек
Каналы : 2 канала
Частота : 48,0 КГц
Метод сжатия : С потерями
Размер потока : 68,4 Мбайт (10%)
Выравнивание : Разделение по промежуткам
Продолжительность промежутка : 40 мс. (1,00 видеокадр)
Время предзагрузки промежутка : 500 мс.
скриншот  скриншот  скриншот  скриншот  
pb.wtf



Скачать Золотой транзит через торрент http://pic1.kartinco.top/images/11/n795p.jpg Скачать фильм Золотой транзит через торрент бесплантно в хорошем качестве Описание: 1924 год. В маленький городок Чуйск на границе с Китаем возвращается бывший золотопромышленник Астахов, сбежавший во время ... 9.8 10 17
Info! Золотая раздача, скачанное не засчитывается.
Торрент: Зарегистрирован [2016-11-27 14:53] · скачан: 359 раз
Статус: √ проверено
Размер: 1.35 GB
Как cкачать? Как скачать Золотой транзит через торрент | qTorrent

% Раздел Тема Автор DL S | L
Наши сериалы [ 1.16 GB ] Золотой транзит / Серии: 1-2 из 2 [2016 SATRip-AVC] aleksan55 Скачать
1 | 0

28-11-2019 20:33  

Отключить всю рекламу на сайте

27-11-2016 18:07 Золотой транзит Скачать торрент  

Подкинем золотишка отечественному производителю.Оценим.Раздающему спасибо. pb.wtf



27-11-2016 18:32 Золотой транзит Скачать торрент  

У меня почему то непринимает торрент и не дает скачивать, пишет ошибкуpb.wtf



27-11-2016 18:35 Золотой транзит Скачать торрент  

ded 4ernomor писал(а):

Подкинем золотишка отечественному производителю.Оценим.Раздающему спасибо.

Спасибо за спасибо)pb.wtf



27-11-2016 18:40 Золотой транзит Скачать торрент  

Kobik писал(а):

У меня почему то непринимает торрент и не дает скачивать, пишет ошибку

Попробовал заново скачать, вроде пошло всеpb.wtf



    Дорогой пользователь! Огромная просьба, поблагодарите релизера, оцените раздачу и оставьте свои комментарий, если Вы скачали Золотой транзит через торрент бесплатно! Внесите свою лепту в развитие PiratBit!
    Комментировать посты могут только пользователи прошедшие не сложную регистрацию
    Показать сообщения:    

    Золотой транзит через торрент
    Скачать бесплатно Золотой транзит
    Золотой транзит скачать торрент
    Золотой транзит смотреть онлайн
    Cкачать фильм Золотой транзит бесплатно
    Золотой транзит скачать торрент в хорошем качестве
    Золотой транзит смотреть онлайн бесплатно в хорошем качестве


    Вы не можете начинать темы
    Вы не можете отвечать на сообщения
    Вы не можете редактировать свои сообщения
    Вы не можете удалять свои сообщения
    Вы не можете голосовать в опросах
    Вы не можете прикреплять файлы к сообщениям
    Вы можете скачивать файлы