Доктор Стрэндж

Лицензия

Добыча

MVO

Дом дракона

1 сезон

Тор

Лицензия

Мэверик

Лицензия

Там, где раки поют

MVO

Властелин колец

1 сезон

Ultimate

pack

Рекомендуем

30

Repack

ВАЖНО

ВАЖНО

Ghostwire

RePack

jed

RePack

nioh2

RePack

RDR2

RePack

NEED FOR SPEED™ PAYBACK

RePack

скачать торрент

Кинопоиск HD

Острые козырьки 6 сезон

6 сезон

FAR CRY 6

RePack

скачать торрент

Лицензия

скачать торрент

MVO

1

1 сезон

скачать торрент

1 сезон

скачать торрент

Лицензия

  

Не думай дважды / Don't Think Twice (Майк Бирбиглия ) [2016, драма, комедия, BD Remux] [Оригинал]

Не думай дважды через торрент pb.wtf

Размер: 22.17 GB | Добавлен: 5 лет 10 мес. назад | Торрент скачан:6 раз
Смотреть онлайн Не думай дважды | Скачать   

27-11-2016 15:05 Не думай дважды Скачать торрент  

Не думай дважды / Don't Think Twice

Год выпуска: 2016
Страна: США
Жанр: драма, комедия
Продолжительность: 01:32:05
Перевод: Отсутствует [Оригинал]
Субтитры: английский, испанский, французский
Режиссер: Майк Бирбиглия
В ролях: Кигэн-Майкл Ки (Jack), Гиллиан Джейкобс (Samantha), Майк Бирбиглия (Miles), Крис Гезерд (Bill), Кейт Микуччи (Allison), Тами Сэгер (Lindsay), Сет Барриш (Timothy), Эрин Майя Дарк (Natasha), Лина Данэм (Lena Dunham), Брайан Эдвардс (Bouncer), Bryce Edwards (Nathan), Элиз Эдвардс (Improv Intern)
Описание:
Душевная комедия о маленькой и сплоченной труппе актеров-импровизаторов, десять лет выступавших на подмостках Нью-Йорка. Любимое дело талантливых друзей оказывается под угрозой, когда продается и закрывается их театр. А когда один из героев получает заманчивое предложение от телевидения, опасность нависает и над их теплыми взаимоотношениями.
rating
MPAA: R - Лицам до 17 лет обязательно присутствие взрослого
Качество: BD Remux
Формат: MKV
Видео: AVC, 1920x1080 (16:9), 30884 kbps, 23,976 fps, 0,621 bpp
Аудио: английский / DTS-HD / 5.1 / 48 kHz / 3538 kbps / 24 bit (Core: 5.1 / 48 kHz / 1509 kbps / 24 bit)
Навигация по главам: есть

General
Unique ID
Complete name Dont.Think.Twice.2016.REMUX.1080p.BluRay.AVC.DTS-HD.MA5.1-iFT\Dont.Think.Twice.2016.REMUX.1080p.BluRay.AVC.DTS-HD.MA5.1-iFT.mkv
Format : Matroska
Format version : Version 4 / Version 2
File size : 22.2 GiB
Duration : 1 h 32 min
Overall bit rate mode : Variable
Overall bit rate : 34.5 Mb/s
Encoded date : UTC 2016-11-24 18:52:42
Writing application : mkvmerge v8.9.0 ('Father Daughter') 64bit
Writing library : libebml v1.3.3 + libmatroska v1.4.4

Video
ID : 1
Format : AVC
Format/Info : Advanced Video Codec
Format profile : [email protected]
Format settings, CABAC : Yes
Format settings, ReFrames : 4 frames
Codec ID : V_MPEG4/ISO/AVC
Duration : 1 h 32 min
Bit rate mode : Variable
Bit rate : 30.9 Mb/s
Maximum bit rate : 35.0 Mb/s
Width : 1 920 pixels
Height : 1 080 pixels
Display aspect ratio : 16:9
Frame rate mode : Constant
Frame rate : 23.976 (24000/1001) FPS
Color space : YUV
Chroma subsampling : 4:2:0
Bit depth : 8 bits
Scan type : Progressive
Bits/(Pixel*Frame) : 0.621
Stream size : 19.9 GiB (90%)
Title : English
Language : English
Default : Yes
Forced : No

Audio
ID : 2
Format : DTS
Format/Info : Digital Theater Systems
Format profile : MA / Core
Mode : 16
Format settings, Endianness : Big
Codec ID : A_DTS
Duration : 1 h 32 min
Bit rate mode : Variable / Constant
Bit rate : 3 538 kb/s / 1 509 kb/s
Channel(s) : 6 channels
Channel positions : Front: L C R, Side: L R, LFE
Sampling rate : 48.0 kHz
Frame rate : 93.750 FPS (512 spf)
Bit depth : 24 bits
Compression mode : Lossless / Lossy
Stream size : 2.28 GiB (10%)
Title : English
Language : English
Default : Yes
Forced : No

Text #1
ID : 3
Format : PGS
Muxing mode : zlib
Codec ID : S_HDMV/PGS
Codec ID/Info : Picture based subtitle format used on BDs/HD-DVDs
Duration : 1 h 24 min
Bit rate : 19.3 kb/s
Count of elements : 3472
Stream size : 11.7 MiB (0%)
Title : English-PGS
Language : English
Default : Yes
Forced : No

Text #2
ID : 4
Format : PGS
Muxing mode : zlib
Codec ID : S_HDMV/PGS
Codec ID/Info : Picture based subtitle format used on BDs/HD-DVDs
Duration : 1 h 30 min
Bit rate : 14.1 kb/s
Count of elements : 3057
Stream size : 9.15 MiB (0%)
Title : Spanish-PGS
Language : Spanish
Default : No
Forced : No

Text #3
ID : 5
Format : PGS
Muxing mode : zlib
Codec ID : S_HDMV/PGS
Codec ID/Info : Picture based subtitle format used on BDs/HD-DVDs
Duration : 1 h 30 min
Bit rate : 14.6 kb/s
Count of elements : 3059
Stream size : 9.46 MiB (0%)
Title : French-PGS
Language : French
Default : No
Forced : No

Menu
00:00:00.000 : en:Chapter 01
00:04:06.955 : en:Chapter 02
00:09:58.723 : en:Chapter 03
00:15:34.850 : en:Chapter 04
00:20:48.747 : en:Chapter 05
00:24:22.085 : en:Chapter 06
00:28:00.303 : en:Chapter 07
00:32:38.831 : en:Chapter 08
00:36:03.035 : en:Chapter 09
00:39:41.921 : en:Chapter 10
00:44:56.694 : en:Chapter 11
00:49:35.973 : en:Chapter 12
00:54:45.448 : en:Chapter 13
00:58:03.980 : en:Chapter 14
01:01:57.338 : en:Chapter 15
01:07:11.485 : en:Chapter 16
01:11:54.727 : en:Chapter 17
01:17:09.708 : en:Chapter 18
01:21:26.882 : en:Chapter 19
01:26:18.381 : en:Chapter 20



Скачать Не думай дважды через торрент http://i5-imageban-ru.translate.goog/out/2016/11/27/0991b9fc422956ed075317c2a4b4afc3.jpg Скачать, смотреть онлайн Не думай дважды бесплантно в хорошем качестве Описание: Душевная комедия о маленькой и сплоченной труппе актеров-импровизаторов, десять лет выступавших на подмостках Нью-Йорка. Любимое ... 5.5 10 2
Торрент: Зарегистрирован [2016-11-27 15:05] · скачан: 6 раз
Статус: √ проверено
Размер: 22.17 GB
Как cкачать? Как скачать Не думай дважды через торрент | UTorrent

% Раздел Тема Автор DL S | L
T Фильмы без перевода [ 4.37 GB ] Не думай дважды / Don't Think Twice | | 720p smaster Скачать
1 | 0
T Фильмы без перевода [ 8.99 GB ] Не думай дважды / Don't Think Twice | | 1080p smaster Скачать
1 | 0

28-11-2019 20:33  

Отключить вcю реклaмy на сайте

    Дорогой пользователь! Огромная просьба, поблагодарите релизера, оцените раздачу и оставьте свои комментарий, если Вы скачали Не думай дважды через торрент бесплатно!!
    Комментировать посты могут только пользователи прошедшие не сложную регистрацию
    Показать сообщения:    


    Не думай дважды через торрент
    Скачать бесплатно Не думай дважды
    Не думай дважды скачать торрент
    Не думай дважды смотреть онлайн
    Cкачать фильм Не думай дважды бесплатно
    Не думай дважды скачать торрент в хорошем качестве
    Не думай дважды смотреть онлайн бесплатно в хорошем качестве
    Вы не можете начинать темы
    Вы не можете отвечать на сообщения
    Вы не можете редактировать свои сообщения
    Вы не можете удалять свои сообщения
    Вы не можете голосовать в опросах
    Вы не можете прикреплять файлы к сообщениям
    Вы можете скачивать файлы