Ссылка на приватное зеркало нашего сайта всего за 1$. Внимание количество ограничено!!!

2 сезон

iTunes

1 сезон

1

iTunes

iTunes

iTunes

1 сезон

RePack

30

ИГРА 18+

pack

ВАЖНО

!!Акция!!

Alien_RageХит недели

RePack

MK11
pack

Забери бонус

RePack

jed

!!Акция!!

Alien_Rage

RePack

fifa19

RePack

Assassins Creed: Odyssey

RePack

NEED FOR SPEED™ PAYBACK

4 сезон

9 сезон

Бесстыжие 9 сезон

Все сериалы

все сериалы на PB.wtf

RePack

FAR CRY 5
  

Дом на холодном ключе / 1-4 серии из 4 (Тарас Дударь) [2016 г., Детектив, мелодрама, SATRip] pb.wtf

Дом на холодном ключе через торрент pb.wtf

Размер: 2.15 GB | Добавлен: 3 года 10 мес. назад | Торрент скачан:131 раз
Скачать  

27-11-2016 19:43 Дом на холодном ключе Скачать торрент  

Дом на холодном ключе
Год выпуска: 2016
Страна: Россия, Украина
Жанр: Детектив, мелодрама
Продолжительность: 4 x ~ 00:45:00
Перевод: Не требуется
Субтитры: Украинские

Режиссер: Тарас Дударь

В ролях:

Марина Коняшкина, Павел Баршак, Виктория Скицкая, Оксана Архангельская, Влад Никитюк, Александр Крыжановский, Сергей Чекерес, Елизавета Зайцева, Дмитрий Лаленков

Описание:

Арина Суботина, всю жизнь считавшая себя сиротой, неожиданно получает известие от женщины, представившейся ее матерью. Якобы та находится при смерти и хочет оставить ей наследство. Чтобы вывести самозванку на чистую воду, Арина отправляется в город Марежино, где живет ее «мать». Здесь же она знакомится с экспертом генетической лаборатории, куда обращается за экспертизой – Ильей. Между молодыми людьми вспыхивает симпатия. Но вскоре Арина начинает понимать, что очень мешает кому-то в этом городе и этот кто-то сделает все, чтобы она уехала, так и не узнав правду о своей «матери» и других тайнах, окружающих Арину с первой же минуты пребывания в Марежино.

Качество: SATRip
Формат: AVI
Видео кодек: XviD
Аудио кодек: AC3

Видео: 720x400 (1.80:1), 25 fps, XviD build 50 ~1550kbps avg, 0.21 bit/pixel
Аудио#1: 48 kHz, AC3 Dolby Digital, 2/0 (L,R) ch, ~192.00 kbps avg
Общее
Полное имя : D:\01.Дом на холодном ключе.2016.SATRip.Files-x.avi
Формат : AVI
Формат/Информация : Audio Video Interleave
Размер файла : 550 Мбайт
Продолжительность : 46 м. 9 с.
Общий поток : 1666 Кбит/сек
Программа кодирования : VirtualDubMod 1.5.10.3 | www.virtualdub-fr.org || (build 2550/release)
Библиотека кодирования : VirtualDubMod build 2550/release

Видео
Идентификатор : 0
Формат : MPEG-4 Visual
Профиль формата : Advanced Simple@L5
Параметр BVOP формата : 1
Параметр QPel формата : Нет
Параметр GMC формата : Без точки перехода
Параметр матрицы формата : Выборочная
Идентификатор кодека : XVID
Идентификатор кодека/Подсказка : XviD
Продолжительность : 46 м. 9 с.
Битрейт : 1464 Кбит/сек
Ширина : 720 пикселей
Высота : 400 пикселей
Соотношение сторон : 16:9
Частота кадров : 25,000 кадров/сек
Цветовое пространство : YUV
Субдискретизация насыщенности : 4:2:0
Битовая глубина : 8 бит
Тип развёртки : Прогрессивная
Метод сжатия : С потерями
Бит/(Пиксели*Кадры) : 0.203
Размер потока : 483 Мбайт (88%)
Библиотека кодирования : XviD 73

Аудио
Идентификатор : 1
Формат : AC-3
Формат/Информация : Audio Coding 3
Расширение режима : CM (complete main)
Параметр Endianness формата : Big
Идентификатор кодека : 2000
Продолжительность : 46 м. 9 с.
Вид битрейта : Постоянный
Битрейт : 192 Кбит/сек
Каналы : 2 канала
Расположение каналов : Front: L R
Частота : 48,0 КГц
Частота кадров : 31,250 кадров/сек (1536 spf)
Метод сжатия : С потерями
Размер потока : 63,4 Мбайт (12%)
Выравнивание : Разделение по промежуткам
Продолжительность промежутка : 40 мс. (1,00 видеокадр)
Время предзагрузки промежутка : 500 мс.
скриншот  скриншот  скриншот  скриншот  
pb.wtf



Скачать Дом на холодном ключе через торрент http://pic1.kartinco.top/images/11/u2dre.jpg Скачать фильм Дом на холодном ключе через торрент бесплантно в хорошем качестве Описание: Арина Суботина, всю жизнь считавшая себя сиротой, неожиданно получает известие от женщины, представившейся ее матерью. Якобы та ... 8.5 10 6
Торрент: Зарегистрирован [2016-11-27 19:43] · скачан: 131 раз
Статус: √ проверено
Размер: 2.15 GB
Как cкачать? Как скачать Дом на холодном ключе через торрент | qTorrent

28-11-2019 20:33  

Отключить всю рекламу на сайте

01-02-2017 10:42 Дом на холодном ключе Скачать торрент  

Дайте скорость ребятаpb.wtf



01-02-2017 18:07 Дом на холодном ключе Скачать торрент  

paxan82 писал(а):

Дайте скорость ребята

Денег много стоит)))pb.wtf



    Дорогой пользователь! Огромная просьба, поблагодарите релизера, оцените раздачу и оставьте свои комментарий, если Вы скачали Дом на холодном ключе через торрент бесплатно! Внесите свою лепту в развитие PiratBit!
    Комментировать посты могут только пользователи прошедшие не сложную регистрацию
    Показать сообщения:    

    Дом на холодном ключе через торрент
    Скачать бесплатно Дом на холодном ключе
    Дом на холодном ключе скачать торрент
    Дом на холодном ключе смотреть онлайн
    Cкачать фильм Дом на холодном ключе бесплатно
    Дом на холодном ключе скачать торрент в хорошем качестве
    Дом на холодном ключе смотреть онлайн бесплатно в хорошем качестве


    Вы не можете начинать темы
    Вы не можете отвечать на сообщения
    Вы не можете редактировать свои сообщения
    Вы не можете удалять свои сообщения
    Вы не можете голосовать в опросах
    Вы не можете прикреплять файлы к сообщениям
    Вы можете скачивать файлы