Ссылка на приватное зеркало нашего сайта всего за 1$. Внимание количество ограничено!!!

2 сезон

iTunes

1 сезон

1

iTunes

iTunes

iTunes

1 сезон

RePack

30

ИГРА 18+

pack

ВАЖНО

!!Акция!!

Alien_RageХит недели

RePack

MK11
pack

Забери бонус

RePack

jed

!!Акция!!

Alien_Rage

RePack

fifa19

RePack

Assassins Creed: Odyssey

RePack

NEED FOR SPEED™ PAYBACK

4 сезон

9 сезон

Бесстыжие 9 сезон

Все сериалы

все сериалы на PB.wtf

RePack

FAR CRY 5
  

Омерзительная восьмерка / The Hateful Eight (Квентин Тарантино) [2015 г., триллер, драма, криминал, детектив, вестерн, BDRip 720p] 2xDUB(rus, ukr)+MVO+3xAVO pb.wtf

Омерзительная восьмерка через торрент pb.wtf

Размер: 15.52 GB | Добавлен: 3 года 10 мес. назад | Торрент скачан:111 раз
Скачать  

27-11-2016 21:49 Омерзительная восьмерка Скачать торрент  

Омерзительная восьмерка / The Hateful EightГод выпуска: 2015
Страна: США
Жанр: триллер, драма, криминал, детектив, вестерн
Продолжительность: 02:47:45

Перевод:

Профессиональный (полное дублирование)[рус+укр] +
Любительский (многоголосый, закадровый) Paradox & OMSKBIRD records+
Авторский (одноголосый) Ю. Сербин+Д.Есарев+А.Матвеев

Субтитры: Английские, русские

Режиссер: Квентин Тарантино

rating

В ролях:

Курт Рассел, Сэмюэл Л. Джексон, Тим Рот, Майкл Мэдсен, Дженнифер Джейсон Ли, Уолтон Гоггинс, Демиан Бишир, Брюс Дерн, Джеймс Паркс, Дэна Гурье

Описание:

США после Гражданской войны. Легендарный охотник за головами Джон Рут по кличке Вешатель конвоирует заключенную. По пути к ним прибиваются еще несколько путешественников. Снежная буря вынуждает компанию искать укрытие в лавке на отшибе, где уже расположилось весьма пестрое общество: генерал конфедератов, мексиканец, ковбой… И один из них - не тот, за кого себя выдает.

Качество: BDRip 720p
Формат: MKV
Видео кодек: H.264
Аудио кодек: DTS/AC3

Видео: 1280x466p (2.747:1), 23.976 fps, AVC MPEG-4 (x264), High@L4.1, ~ 4228 kbps avg, 0.296 bit/pixel
Аудио#1: Русский: 48 kHz, DTS, 3/2 (L,C,R,l,r) + LFE ch, ~1509.00 kbps avg [Профессиональный (полное дублирование) BD RUS]
Аудио#2: Украинский: 48 kHz, AC3, 3/2 (L,C,R,l,r) + LFE ch, ~640.00 kbps avg [Профессиональный (полное дублирование) R5]
Аудио#3: Русский: 48 kHz, AC3, 3/2 (L,C,R,l,r) + LFE ch, ~448.00 kbps avg [Любительский (многоголосый, закадровый) Paradox & OMSKBIRD records]
Аудио#4: Русский: 48 kHz, DTS, 3/2 (L,C,R,l,r) + LFE ch, ~1509.00 kbps avg [Авторский (одноголосый) Ю. Сербин]
Аудио#5: Русский: 48 kHz, DTS, 3/2 (L,C,R,l,r) + LFE ch, ~1509.00 kbps avg [Авторский (одноголосый) Д.Есарев]
Аудио#6: Русский: 48 kHz, DTS, 3/2 (L,C,R,l,r) + LFE ch, ~1509.00 kbps avg [ Авторский (одноголосый) А.Матвеев]
Аудио#7: Английский: 48 kHz, DTS, 3/2 (L,C,R,l,r) + LFE ch, ~1509.00 kbps avg [Оригинал]
Общее
Уникальный идентификатор : 194630174393983523352040432405993188483 (0x926C6878E465E48C8558EB3BF6036C83)
Полное имя : E:\The.Hateful.Eight.2015.720p.mkv
Формат : Matroska
Версия формата : Version 2
Размер файла : 15,5 Гбайт
Продолжительность : 2 ч. 49 м.
Общий поток : 13,1 Мбит/сек
Название фильма : The Hateful Eight (2015) - Release for HDCLUB
Дата кодирования : UTC 2016-11-25 12:38:56
Программа кодирования : mkvmerge v3.4.0 ('Rapunzel') built on May 15 2010 09:38:20
Библиотека кодирования : libebml v0.8.0 + libmatroska v0.9.0
Обложка : Yes

Видео
Идентификатор : 1
Формат : AVC
Формат/Информация : Advanced Video Codec
Профиль формата : High@L4.1
Параметр CABAC формата : Да
Параметр ReFrames формата : 13 кадров
Идентификатор кодека : V_MPEG4/ISO/AVC
Продолжительность : 2 ч. 49 м.
Битрейт : 4228 Кбит/сек
Ширина : 1280 пикселей
Высота : 466 пикселей
Соотношение сторон : 2,747
Режим частоты кадров : Постоянный
Частота кадров : 23,976 кадра/сек
Цветовое пространство : YUV
Субдискретизация насыщенности : 4:2:0
Битовая глубина : 8 бит
Тип развёртки : Прогрессивная
Бит/(Пиксели*Кадры) : 0.296
Размер потока : 5,00 Гбайт (32%)
Заголовок : The Hateful Eight (2015) - Release for HDCLUB
Библиотека кодирования : x264 core 148 r2665+53 6629127 t_mod_Custom [8-bit@all X86_64]
Настройки программы : cabac=1 / ref=13 / deblock=1:-3:-3 / analyse=0x3:0x133 / me=umh / subme=11 / psy=1 / fade_compensate=0.00 / psy_rd=1.05:0.00 / mixed_ref=1 / me_range=48 / chroma_me=1 / trellis=2 / 8x8dct=1 / cqm=0 / deadzone=21,11 / fast_pskip=0 / chroma_qp_offset=-2 / threads=8 / lookahead_threads=2 / sliced_threads=0 / nr=0 / decimate=0 / interlaced=0 / bluray_compat=0 / constrained_intra=0 / fgo=0 / bframes=11 / b_pyramid=2 / b_adapt=2 / b_bias=0 / direct=3 / weightb=1 / open_gop=0 / weightp=2 / keyint=250 / keyint_min=23 / scenecut=40 / intra_refresh=0 / rc_lookahead=150 / rc=crf / mbtree=0 / crf=14.9000 / qcomp=0.65 / qpmin=0:0:0 / qpmax=69:69:69 / qpstep=4 / vbv_maxrate=50000 / vbv_bufsize=62500 / crf_max=0.0 / nal_hrd=none / filler=0 / ip_ratio=1.30 / pb_ratio=1.20 / aq=3:0.70 / aq-sensitivity=10.00 / aq-factor=1.00:1.00:1.00 / aq2=0 / aq3=0
Язык : English
Default : Да
Forced : Нет

Аудио #1
Идентификатор : 2
Формат : DTS
Формат/Информация : Digital Theater Systems
Режим : 16
Параметр Endianness формата : Big
Идентификатор кодека : A_DTS
Продолжительность : 2 ч. 49 м.
Вид битрейта : Постоянный
Битрейт : 1509 Кбит/сек
Каналы : 6 каналов
Расположение каналов : Front: L C R, Side: L R, LFE
Частота : 48,0 КГц
Битовая глубина : 16 бит
Метод сжатия : С потерями
Размер потока : 1,78 Гбайт (11%)
Заголовок : DTS 5.1 @ 1536 kbps - DUB, Blu-ray
Язык : Russian
Default : Да
Forced : Нет

Аудио #2
Идентификатор : 3
Формат : AC-3
Формат/Информация : Audio Coding 3
Расширение режима : CM (complete main)
Параметр Endianness формата : Big
Идентификатор кодека : A_AC3
Продолжительность : 2 ч. 49 м.
Вид битрейта : Постоянный
Битрейт : 640 Кбит/сек
Каналы : 6 каналов
Расположение каналов : Front: L C R, Side: L R, LFE
Частота : 48,0 КГц
Битовая глубина : 16 бит
Метод сжатия : С потерями
Размер потока : 775 Мбайт (5%)
Заголовок : AC3 5.1 @ 640 kbps - DUB, R5
Язык : Ukrainian
Default : Нет
Forced : Нет

Аудио #3
Идентификатор : 4
Формат : AC-3
Формат/Информация : Audio Coding 3
Расширение режима : CM (complete main)
Параметр Endianness формата : Big
Идентификатор кодека : A_AC3
Продолжительность : 2 ч. 49 м.
Вид битрейта : Постоянный
Битрейт : 448 Кбит/сек
Каналы : 6 каналов
Расположение каналов : Front: L C R, Side: L R, LFE
Частота : 48,0 КГц
Битовая глубина : 16 бит
Метод сжатия : С потерями
Размер потока : 542 Мбайт (3%)
Заголовок : AC3 5.1 @ 448 kbps - MVO, Paradox & Omskbird records
Язык : Russian
Default : Нет
Forced : Нет

Аудио #4
Идентификатор : 5
Формат : DTS
Формат/Информация : Digital Theater Systems
Режим : 16
Параметр Endianness формата : Big
Идентификатор кодека : A_DTS
Продолжительность : 2 ч. 49 м.
Вид битрейта : Постоянный
Битрейт : 1509 Кбит/сек
Каналы : 6 каналов
Расположение каналов : Front: L C R, Side: L R, LFE
Частота : 48,0 КГц
Битовая глубина : 24 бит
Метод сжатия : С потерями
Размер потока : 1,78 Гбайт (11%)
Заголовок : DTS 5.1 @ 1536 kbps - AVO, Y.Serbin
Язык : Russian
Default : Нет
Forced : Нет

Аудио #5
Идентификатор : 6
Формат : DTS
Формат/Информация : Digital Theater Systems
Режим : 16
Параметр Endianness формата : Big
Идентификатор кодека : A_DTS
Продолжительность : 2 ч. 49 м.
Вид битрейта : Постоянный
Битрейт : 1509 Кбит/сек
Каналы : 6 каналов
Расположение каналов : Front: L C R, Side: L R, LFE
Частота : 48,0 КГц
Битовая глубина : 24 бит
Метод сжатия : С потерями
Размер потока : 1,78 Гбайт (11%)
Заголовок : DTS 5.1 @ 1536 kbps - AVO, A.Matveev
Язык : Russian
Default : Нет
Forced : Нет

Аудио #6
Идентификатор : 7
Формат : DTS
Формат/Информация : Digital Theater Systems
Режим : 16
Параметр Endianness формата : Big
Идентификатор кодека : A_DTS
Продолжительность : 2 ч. 49 м.
Вид битрейта : Постоянный
Битрейт : 1509 Кбит/сек
Каналы : 6 каналов
Расположение каналов : Front: L C R, Side: L R, LFE
Частота : 48,0 КГц
Битовая глубина : 24 бит
Метод сжатия : С потерями
Размер потока : 1,78 Гбайт (11%)
Заголовок : DTS 5.1 @ 1536 kbps - AVO, D.Esarev
Язык : Russian
Default : Нет
Forced : Нет

Аудио #7
Идентификатор : 8
Формат : DTS
Формат/Информация : Digital Theater Systems
Режим : 16
Параметр Endianness формата : Big
Идентификатор кодека : A_DTS
Продолжительность : 2 ч. 49 м.
Вид битрейта : Постоянный
Битрейт : 1509 Кбит/сек
Каналы : 6 каналов
Расположение каналов : Front: L C R, Side: L R, LFE
Частота : 48,0 КГц
Битовая глубина : 24 бит
Метод сжатия : С потерями
Задержка видео : 11 мс.
Размер потока : 1,78 Гбайт (11%)
Заголовок : DTS 5.1 @ 1536 kbps
Язык : English
Default : Нет
Forced : Нет

Текст #1
Идентификатор : 9
Формат : UTF-8
Идентификатор кодека : S_TEXT/UTF8
Идентификатор кодека/Информация : UTF-8 Plain Text
Заголовок : Forced
Язык : Russian
Default : Да
Forced : Нет

Текст #2
Идентификатор : 10
Формат : UTF-8
Идентификатор кодека : S_TEXT/UTF8
Идентификатор кодека/Информация : UTF-8 Plain Text
Заголовок : Ahmetov Ruslan
Язык : Russian
Default : Нет
Forced : Нет

Текст #3
Идентификатор : 11
Формат : UTF-8
Идентификатор кодека : S_TEXT/UTF8
Идентификатор кодека/Информация : UTF-8 Plain Text
Заголовок : Alexey "Doctor Joker" Matveev
Язык : Russian
Default : Нет
Forced : Нет

Текст #4
Идентификатор : 12
Формат : UTF-8
Идентификатор кодека : S_TEXT/UTF8
Идентификатор кодека/Информация : UTF-8 Plain Text
Язык : English
Default : Нет
Forced : Нет

Текст #5
Идентификатор : 13
Формат : UTF-8
Идентификатор кодека : S_TEXT/UTF8
Идентификатор кодека/Информация : UTF-8 Plain Text
Заголовок : SDH
Язык : English
Default : Нет
Forced : Нет

Меню
00:00:00.000 : en:Opening Credits
00:04:33.523 : en:Chapter One: Last Stage to Red Rock
00:11:36.112 : en:"When the Hangman Catches You, You Hang"
00:22:01.362 : en:Chapter Two: Son of a Gun
00:35:02.434 : en:Chapter Three: Minnie's Haberdashery
00:43:31.901 : en:Frontier Justice
00:52:12.212 : en:"That Door's a Whore"
00:59:04.499 : en:"Well cut my legs off and call me shorty!"
01:08:30.315 : en:"In Cahoots"
01:16:10.858 : en:Stew
01:25:18.447 : en:"Startin' to see pictures, ain't ya?"
01:35:06.492 : en:Chapter Four: Domergue's Got a Secret
01:42:20.176 : en:"When you get to hell, John tell 'em Daisy Sent You"
01:50:33.335 : en:"Let's slow it down. Let's slow it way down."
01:59:32.499 : en:Chapter Five: The Four Passengers
02:06:43.054 : en:"Are You the Jelly Bean Salesman Around Here?"
02:13:26.624 : en:"Hello, thank you, goodnight and maybe my name."
02:19:59.725 : en:Last Chapter: Black Man, White Hell
02:24:17.023 : en:"OK, bitch, I'll bite."
02:34:08.114 : en:"Wake Up, White Boy"
02:39:38.027 : en:The Lincoln Letter
02:43:22.751 : en:"There Won't Be Many Coming Home" "]
скриншот  скриншот  скриншот  скриншот  
pb.wtf



Скачать Омерзительная восьмерка через торрент http://pic1.kartinco.top/images/11/h6vv6.jpg Скачать фильм Омерзительная восьмерка через торрент бесплантно в хорошем качестве Описание: США после Гражданской войны. Легендарный охотник за головами Джон Рут по кличке Вешатель конвоирует заключенную. По пути к ним ... 10 10 8
Info! Золотая раздача, скачанное не засчитывается.
Торрент: Зарегистрирован [2016-11-27 21:49] · скачан: 111 раз
Статус: √ проверено
Размер: 15.52 GB
Как cкачать? Как скачать Омерзительная восьмерка через торрент | qTorrent



Последний раз редактировалось: bober100 (2017-05-24 11:29), всего редактировалось 1 раз

28-11-2019 20:33  

Отключить всю рекламу на сайте

01-12-2016 09:51 Омерзительная восьмерка Скачать торрент  

филь отличныйpb.wtf



01-12-2016 11:29 Омерзительная восьмерка Скачать торрент  

костя79 писал(а):

филь отличный

А мне нет!pb.wtf



    Дорогой пользователь! Огромная просьба, поблагодарите релизера, оцените раздачу и оставьте свои комментарий, если Вы скачали Омерзительная восьмерка через торрент бесплатно! Внесите свою лепту в развитие PiratBit!
    Комментировать посты могут только пользователи прошедшие не сложную регистрацию
    Показать сообщения:    

    Омерзительная восьмерка через торрент
    Скачать бесплатно Омерзительная восьмерка
    Омерзительная восьмерка скачать торрент
    Омерзительная восьмерка смотреть онлайн
    Cкачать фильм Омерзительная восьмерка бесплатно
    Омерзительная восьмерка скачать торрент в хорошем качестве
    Омерзительная восьмерка смотреть онлайн бесплатно в хорошем качестве


    Вы не можете начинать темы
    Вы не можете отвечать на сообщения
    Вы не можете редактировать свои сообщения
    Вы не можете удалять свои сообщения
    Вы не можете голосовать в опросах
    Вы не можете прикреплять файлы к сообщениям
    Вы можете скачивать файлы