новый адрес
Ссылка на приватное зеркало всего за 1$. Внимание количество ограничено!!!

iTunes

1+1

iTunes

мы

WEB-DL

1

iTunes

Чернобыль

iTunes

Ральф против интернета

Лицензия

ПШазам

Лицензия

Оно 2

Лицензия

30
pack

Вам бонус

ВАЖНО

!!Акция!!

Alien_RageХит недели

RePack

Resident Evil 21

ИГРА 18+

pack

RePack

jed

!!Акция!!

Alien_Rage

RePack

fifa19

RePack

Assassins Creed: Odyssey

RePack

NEED FOR SPEED™ PAYBACK

3 сезон

9 сезон

Бесстыжие 9 сезон

Все сериалы

все сериалы на PB.wtf

RePack

FAR CRY 5
Ребята, катастрофически не хватает 1900р. для оплаты серверов за Октябрь (всвязи с блокировками трафик упал в 3 раза), 1-2р., выручайте.
  

Клип / Klip (Майя Милош) [2012 г., Драма, Для взрослых, BDRip 1080p] MVO + AVO pb.wtf

Клип через торрент pb.wtf

Размер: 7.98 GB | Добавлен: 3 года назад | Торрент скачан:95 раз
Скачать  

28-11-2016 00:32 Клип Скачать торрент  

Клип / Klip
Год выпуска: 2012
Страна: Сербия
Жанр: Драма,Для взрослых
Продолжительность: 01:38:28
Перевод: Профессиональный (многоголосый) +(AVO den904)

Режиссер: Майя Милош

В ролях: Исидора Симионович, Вукасин Яснич, Зоран Максимович, Йово Максич,
Никола Драгутинович, Владимир Гвоиц, Соня Яничиц, Катарина Пешич, Санья Миклушин, Моня Савич


Описание: Ясна — красивая девочка-подросток. Не желая примириться с жизнью в провинциальном сербском захолустье
с замученной работой мамашей и постоянно больным отцом, она находится в конфликте со всеми, ведет себя дико,
экспериментирует с сексом, наркотиками, и просто убивает время. Но постепенно ее отчаянный протест помогает ей примириться с болезненной реальностью.



Качество: BDRip 1080p
Формат: MKV
Видео кодек: AVC
Аудио кодек: AC3
Видео: AVC : 1916x916,(2,092),v 25,000,fps 11,0 Мбит/сек
Аудио#1: Russian: AC-3:192 Кбит/сек,48,0 КГц, 2 канала[Профессиональный (многоголосый - online movies)]
Аудио#2: Russian: AC-3:192 Кбит/сек,48,0 КГц, 2 канала[Авторский одноголосый - den904]
Аудио#3: Serbian: AC-3: 224 Кбит/сек,48,0 КГц, 2 канала[Oригинал]

Формат субтитров: UTF-8 Plain Text

Код:

Общее
Уникальный идентификатор                 : 236126851221126356750615101381828989515 (0xB1A460999EDCEE3C93B215D8E83CD24B)
Полное имя                               : Клип (Klip) 2012 BDRip 1080p.mkv
Формат                                   : Matroska
Версия формата                           : Version 2
Размер файла                             : 7,98 Гбайт
Продолжительность                        : 1 ч. 38 м.
Общий поток                              : 11,6 Мбит/сек
Дата кодирования                         : UTC 2016-03-06 05:51:01
Программа кодирования                    : mkvmerge v4.0.0 ('The Stars were mine') сборка от Jun  6 2010 16:18:42
Библиотека кодирования                   : libebml v1.0.0 + libmatroska v1.0.0

Видео
Идентификатор                            : 1
Формат                                   : AVC
Формат/Информация                        : Advanced Video Codec
Профиль формата                          : High@L4.1
Параметр CABAC формата                   : Да
Параметр ReFrames формата                : 4 кадра
Идентификатор кодека                     : V_MPEG4/ISO/AVC
Продолжительность                        : 1 ч. 38 м.
Битрейт                                  : 11,0 Мбит/сек
Ширина                                   : 1916 пикселей
Высота                                   : 916 пикселей
Соотношение сторон                       : 2,092
Режим частоты кадров                     : Постоянный
Частота кадров                           : 25,000 кадров/сек
Цветовое пространство                    : YUV
Субдискретизация насыщенности            : 4:2:0
Битовая глубина                          : 8 бит
Тип развёртки                            : Прогрессивная
Бит/(Пиксели*Кадры)                      : 0.251
Размер потока                            : 7,40 Гбайт (93%)
Библиотека кодирования                   : x264 core 146 r2538 121396c
Настройки программы                      : cabac=1 / ref=4 / deblock=1:-3:-3 / analyse=0x3:0x133 / me=umh / subme=11 / psy=1 / psy_rd=1.00:0.00 / mixed_ref=1 / me_range=32 / chroma_me=1 / trellis=2 / 8x8dct=1 / cqm=0 / deadzone=21,11 / fast_pskip=0 / chroma_qp_offset=-2 / threads=12 / lookahead_threads=2 / sliced_threads=0 / nr=0 / decimate=0 / interlaced=0 / bluray_compat=0 / constrained_intra=0 / bframes=12 / b_pyramid=2 / b_adapt=2 / b_bias=0 / direct=3 / weightb=1 / open_gop=0 / weightp=2 / keyint=250 / keyint_min=25 / scenecut=40 / intra_refresh=0 / rc=2pass / mbtree=0 / bitrate=11000 / ratetol=1.0 / qcomp=0.60 / qpmin=0 / qpmax=69 / qpstep=4 / cplxblur=20.0 / qblur=0.5 / ip_ratio=1.40 / pb_ratio=1.30 / aq=1:0.80
Язык                                     : Serbian
Default                                  : Нет
Forced                                   : Нет

Аудио #1
Идентификатор                            : 2
Формат                                   : AC-3
Формат/Информация                        : Audio Coding 3
Расширение режима                        : CM (complete main)
Параметр Endianness формата              : Big
Идентификатор кодека                     : A_AC3
Продолжительность                        : 1 ч. 38 м.
Вид битрейта                             : Постоянный
Битрейт                                  : 192 Кбит/сек
Каналы                                   : 2 канала
Расположение каналов                     : Front: L R
Частота                                  : 48,0 КГц
Частота кадров                           : 31,250 кадров/сек (1536 spf)
Метод сжатия                             : С потерями
Размер потока                            : 135 Мбайт (2%)
Заголовок                                : MVO online movies
Язык                                     : Russian
Default                                  : Нет
Forced                                   : Нет

Аудио #2
Идентификатор                            : 3
Формат                                   : AC-3
Формат/Информация                        : Audio Coding 3
Расширение режима                        : CM (complete main)
Параметр Endianness формата              : Big
Идентификатор кодека                     : A_AC3
Продолжительность                        : 1 ч. 38 м.
Вид битрейта                             : Постоянный
Битрейт                                  : 192 Кбит/сек
Каналы                                   : 2 канала
Расположение каналов                     : Front: L R
Частота                                  : 48,0 КГц
Частота кадров                           : 31,250 кадров/сек (1536 spf)
Метод сжатия                             : С потерями
Размер потока                            : 135 Мбайт (2%)
Заголовок                                : VO den904
Язык                                     : Russian
Default                                  : Нет
Forced                                   : Нет

Аудио #3
Идентификатор                            : 4
Формат                                   : AC-3
Формат/Информация                        : Audio Coding 3
Расширение режима                        : CM (complete main)
Параметр Endianness формата              : Big
Идентификатор кодека                     : A_AC3
Продолжительность                        : 1 ч. 38 м.
Вид битрейта                             : Постоянный
Битрейт                                  : 224 Кбит/сек
Каналы                                   : 2 канала
Расположение каналов                     : Front: L R
Частота                                  : 48,0 КГц
Частота кадров                           : 31,250 кадров/сек (1536 spf)
Метод сжатия                             : С потерями
Размер потока                            : 158 Мбайт (2%)
Язык                                     : Serbian
Default                                  : Нет
Forced                                   : Нет

Текст #1
Идентификатор                            : 5
Формат                                   : UTF-8
Идентификатор кодека                     : S_TEXT/UTF8
Идентификатор кодека/Информация          : UTF-8 Plain Text
Язык                                     : Russian
Default                                  : Нет
Forced                                   : Нет

Текст #2
Идентификатор                            : 6
Формат                                   : UTF-8
Идентификатор кодека                     : S_TEXT/UTF8
Идентификатор кодека/Информация          : UTF-8 Plain Text
Язык                                     : English
Default                                  : Нет
Forced                                   : Нет



pb.wtf



Скачать Клип через торрент http://pic1.kartinco.top/images/11/ojani.jpg Скачать фильм Клип через торрент бесплантно в хорошем качестве Описание: Ясна — красивая девочка-подросток. Не желая примириться с жизнью в провинциальном сербском захолустьес замученной работой мамашей ... 7 10 3
Торрент: Зарегистрирован [2016-11-28 00:32] · скачан: 95 раз
Статус: √ проверено
Размер: 7.98 GB
Как cкачать? Как скачать Клип через торрент | qTorrent

% Раздел Тема Автор DL S | L
Арт-хаус и авторское кино [ 3.75 GB ] Клип / Klip [2012 Сербия BDRip 720p] MVO [online movies] + AVO [den904] GEKADOL Скачать
1 | 0


Последний раз редактировалось: DJASFUL (2016-11-28 14:20), всего редактировалось 5 раз(а)

28-11-2019 20:33  

Отключить всю рекламу на сайте

02-12-2018 11:25 Клип Скачать торрент  

Хорошие шлюшки в Сербии.pb.wtf



    Дорогой пользователь! Огромная просьба, поблагодарите релизера, оцените раздачу и оставьте свои комментарий, если Вы скачали Клип через торрент бесплатно! Внесите свою лепту в развитие PiratBit!
    Комментировать посты могут только пользователи прошедшие не сложную регистрацию
    Показать сообщения:    

    Клип через торрент
    Скачать бесплатно Клип
    Клип скачать торрент
    Клип смотреть онлайн
    Cкачать фильм Клип бесплатно
    Клип скачать торрент в хорошем качестве
    Клип смотреть онлайн бесплатно в хорошем качестве


    Вы не можете начинать темы
    Вы не можете отвечать на сообщения
    Вы не можете редактировать свои сообщения
    Вы не можете удалять свои сообщения
    Вы не можете голосовать в опросах
    Вы не можете прикреплять файлы к сообщениям
    Вы можете скачивать файлы