Ссылка на приватное зеркало нашего сайта всего за 1$. Внимание количество ограничено!!!

2 сезон

iTunes

1 сезон

1

iTunes

iTunes

iTunes

1 сезон

RePack

30

ИГРА 18+

pack

ВАЖНО

!!Акция!!

Alien_RageХит недели

RePack

MK11
pack

Забери бонус

RePack

jed

!!Акция!!

Alien_Rage

RePack

fifa19

RePack

Assassins Creed: Odyssey

RePack

NEED FOR SPEED™ PAYBACK

4 сезон

9 сезон

Бесстыжие 9 сезон

Все сериалы

все сериалы на PB.wtf

RePack

FAR CRY 5
  

Знакомьтесь, Дэйв / Meet Dave (Брайан Роббинс) [2008, фантастика, мелодрама, комедия, приключения, семейный, BDRip 720p by msltel] DUB pb.wtf

Знакомьтесь, Дэйв через торрент pb.wtf

Размер: 4.53 GB | Добавлен: 3 года 10 мес. назад | Торрент скачан:94 раза
Скачать  

28-11-2016 06:51 Знакомьтесь, Дэйв Скачать торрент  

Название: Знакомьтесь, Дэйв
Оригинальное название: Meet Dave
Год выпуска: 2008
Страна: США
Жанр: фантастика, мелодрама, комедия, приключения, семейный
Продолжительность: 01:30:23
Перевод: дублированный

Режиссёр: Брайан Роббинс

В ролях: Эдди Мёрфи, Элизабет Бэнкс, Гэбриэл Юнион, Скотт Каан, Эд Хелмс, Кевин Харт, Майк О`Мэлли, Пэт Килбейн, Джуда Фридлендер, Марк Блукас, Джим Тернер, Остин Майерс, Адам Томей, Брайан Хаски, Шон Кристиан, Роб Моран, Джейн Брэдбери, Брэд Уилсон, Мигель А. Нуньес мл., Джон Гэйтинс

Описание: В поисках способа спасения своего мира, находящегося на грани катастрофы, команда миниатюрных человекоподобных пришельцев прибывает на Землю на корабле, замаскированном под тело обычного человека. В нашем мире им приходится приспосабливаться, чтобы не быть схваченными людьми...



Качество: BDRip 720p Сравнение с исходником
Формат: MKV
Видео: MPEG-4 AVC, 6274 Kбит/с, 1280x694, 23,976 кадра/с
Аудио 1: русский, AC3, 448 kbps, 6 ch, 48 kHz [дублированный]
Аудио 2: английский, AC3, 448 kbps, 6 ch, 48 kHz [оригинал]
Субтитры 1: русские
Субтитры 2: английские
Имеются неименованные главы/чаптеры.
Общее
Уникальный идентификатор : 205821384562370967850998665921764784342 (0x9AD7C1BBD5DE4A859E73EBB5167BF8D6)
Полное имя : D:\Video\Знакомьтесь, Дэйв.2008.BDRip.720p by msltel.mkv
Формат : Matroska
Версия формата : Version 4 / Version 2
Размер файла : 4,53 Гбайт
Продолжительность : 1 ч. 30 м.
Общий поток : 7173 Кбит/сек
Название фильма : Rip by msltel
Дата кодирования : UTC 2016-11-27 13:12:41
Программа кодирования : mkvmerge v8.2.0 ('World of Adventure') 64bit
Библиотека кодирования : libebml v1.3.1 + libmatroska v1.4.2

Видео
Идентификатор : 1
Формат : AVC
Формат/Информация : Advanced Video Codec
Профиль формата : High@L4.1
Параметр CABAC формата : Да
Параметр ReFrames формата : 9 кадров
Идентификатор кодека : V_MPEG4/ISO/AVC
Продолжительность : 1 ч. 30 м.
Битрейт : 6274 Кбит/сек
Ширина : 1280 пикселей
Высота : 694 пикселя
Соотношение сторон : 1,85:1
Режим частоты кадров : Постоянный
Частота кадров : 23,976 (24000/1001) кадра/сек
Цветовое пространство : YUV
Субдискретизация насыщенности : 4:2:0
Битовая глубина : 8 бит
Тип развёртки : Прогрессивная
Бит/(Пиксели*Кадры) : 0.295
Размер потока : 3,96 Гбайт (87%)
Библиотека кодирования : x264 core 146 r2538 121396c
Настройки программы : cabac=1 / ref=9 / deblock=1:-1:-1 / analyse=0x3:0x113 / me=umh / subme=9 / psy=1 / psy_rd=1.00:0.15 / mixed_ref=1 / me_range=32 / chroma_me=1 / trellis=1 / 8x8dct=1 / cqm=0 / deadzone=21,11 / fast_pskip=0 / chroma_qp_offset=-3 / threads=6 / lookahead_threads=1 / sliced_threads=0 / nr=0 / decimate=1 / interlaced=0 / bluray_compat=0 / constrained_intra=0 / bframes=8 / b_pyramid=2 / b_adapt=2 / b_bias=0 / direct=1 / weightb=0 / open_gop=0 / weightp=2 / keyint=230 / keyint_min=23 / scenecut=40 / intra_refresh=0 / rc_lookahead=40 / rc=crf / mbtree=0 / crf=19.2 / qcomp=0.60 / qpmin=0 / qpmax=69 / qpstep=4 / vbv_maxrate=50000 / vbv_bufsize=62500 / crf_max=0.0 / nal_hrd=none / filler=0 / ip_ratio=1.40 / pb_ratio=1.30 / aq=1:1.00
Язык : English
Default : Да
Forced : Нет

Аудио #1
Идентификатор : 2
Формат : AC-3
Формат/Информация : Audio Coding 3
Расширение режима : CM (complete main)
Параметр Endianness формата : Big
Идентификатор кодека : A_AC3
Продолжительность : 1 ч. 30 м.
Вид битрейта : Постоянный
Битрейт : 448 Кбит/сек
Каналы : 6 каналов
Расположение каналов : Front: L C R, Side: L R, LFE
Частота : 48,0 КГц
Частота кадров : 31,250 кадров/сек (1536 spf)
Метод сжатия : С потерями
Размер потока : 290 Мбайт (6%)
Заголовок : DUB
Язык : Russian
Default : Да
Forced : Нет

Аудио #2
Идентификатор : 3
Формат : AC-3
Формат/Информация : Audio Coding 3
Расширение режима : CM (complete main)
Параметр Endianness формата : Big
Идентификатор кодека : A_AC3
Продолжительность : 1 ч. 30 м.
Вид битрейта : Постоянный
Битрейт : 448 Кбит/сек
Каналы : 6 каналов
Расположение каналов : Front: L C R, Side: L R, LFE
Частота : 48,0 КГц
Частота кадров : 31,250 кадров/сек (1536 spf)
Метод сжатия : С потерями
Размер потока : 290 Мбайт (6%)
Заголовок : original
Язык : English
Default : Нет
Forced : Нет

Текст #1
Идентификатор : 4
Формат : UTF-8
Идентификатор кодека : S_TEXT/UTF8
Идентификатор кодека/Информация : UTF-8 Plain Text
Продолжительность : 1 ч. 24 м.
Битрейт : 91 бит/сек
Count of elements : 1057
Размер потока : 57,0 Кбайт (0%)
Заголовок : русские
Язык : Russian
Default : Нет
Forced : Нет

Текст #2
Идентификатор : 5
Формат : UTF-8
Идентификатор кодека : S_TEXT/UTF8
Идентификатор кодека/Информация : UTF-8 Plain Text
Продолжительность : 1 ч. 24 м.
Битрейт : 65 бит/сек
Count of elements : 1081
Размер потока : 40,6 Кбайт (0%)
Заголовок : английские
Язык : English
Default : Нет
Forced : Нет

Меню
00:00:00.000 : :Chapter 01
00:01:11.738 : :Chapter 02
00:05:29.746 : :Chapter 03
00:07:15.059 : :Chapter 04
00:11:57.842 : :Chapter 05
00:15:11.577 : :Chapter 06
00:21:19.695 : :Chapter 07
00:23:42.671 : :Chapter 08
00:27:09.127 : :Chapter 09
00:30:25.824 : :Chapter 10
00:32:56.724 : :Chapter 11
00:35:28.458 : :Chapter 12
00:38:18.713 : :Chapter 13
00:39:27.406 : :Chapter 14
00:44:03.474 : :Chapter 15
00:49:31.677 : :Chapter 16
00:50:46.543 : :Chapter 17
00:54:34.396 : :Chapter 18
01:00:14.569 : :Chapter 19
01:07:28.085 : :Chapter 20
01:12:24.506 : :Chapter 21
01:14:42.352 : :Chapter 22
01:18:46.930 : :Chapter 23
01:25:49.561 : :Chapter 24
01:30:23.626 : :Chapter 25

ВКОНТАКТЕpb.wtf



Скачать Знакомьтесь, Дэйв через торрент http://i026.radikal.ru/1611/5c/ff6be7dbff8b.jpg Скачать фильм Знакомьтесь, Дэйв через торрент бесплантно в хорошем качестве Описание: В поисках способа спасения своего мира, находящегося на грани катастрофы, команда миниатюрных человекоподобных пришельцев ... 9.8 10 5
Торрент: Зарегистрирован [2016-11-28 06:51] · скачан: 94 раз
Статус: √ проверено
Размер: 4.53 GB
Как cкачать? Как скачать Знакомьтесь, Дэйв через торрент | qTorrent

% Раздел Тема Автор DL S | L
Фильмы [HD 720p, 1080p] (Хороший звук DUB, MVO) [ 13.98 GB ] Знакомьтесь Дэйв / Meet Dave [2008 BDRip 1080p by msltel] DUB msltel Скачать
1 | 0

28-11-2019 20:33  

Отключить всю рекламу на сайте

    Дорогой пользователь! Огромная просьба, поблагодарите релизера, оцените раздачу и оставьте свои комментарий, если Вы скачали Знакомьтесь, Дэйв через торрент бесплатно! Внесите свою лепту в развитие PiratBit!
    Комментировать посты могут только пользователи прошедшие не сложную регистрацию
    Показать сообщения:    

    Знакомьтесь, Дэйв через торрент
    Скачать бесплатно Знакомьтесь, Дэйв
    Знакомьтесь, Дэйв скачать торрент
    Знакомьтесь, Дэйв смотреть онлайн
    Cкачать фильм Знакомьтесь, Дэйв бесплатно
    Знакомьтесь, Дэйв скачать торрент в хорошем качестве
    Знакомьтесь, Дэйв смотреть онлайн бесплатно в хорошем качестве


    Вы не можете начинать темы
    Вы не можете отвечать на сообщения
    Вы не можете редактировать свои сообщения
    Вы не можете удалять свои сообщения
    Вы не можете голосовать в опросах
    Вы не можете прикреплять файлы к сообщениям
    Вы можете скачивать файлы