Ссылка на приватное зеркало нашего сайта всего за 1$. Внимание количество ограничено!!!

2 сезон

iTunes

1 сезон

1

iTunes

iTunes

iTunes

1 сезон

RePack

30

ИГРА 18+

pack

ВАЖНО

!!Акция!!

Alien_RageХит недели

RePack

MK11
pack

Забери бонус

RePack

jed

!!Акция!!

Alien_Rage

RePack

fifa19

RePack

Assassins Creed: Odyssey

RePack

NEED FOR SPEED™ PAYBACK

4 сезон

9 сезон

Бесстыжие 9 сезон

Все сериалы

все сериалы на PB.wtf

RePack

FAR CRY 5
  

Через Вселенную / Across the Universe (Джули Тэймор) [2007, мюзикл, фэнтези, драма, мелодрама, BDRip 720p by msltel] MVO pb.wtf

Через Вселенную через торрент pb.wtf

Размер: 5.23 GB | Добавлен: 3 года 10 мес. назад | Торрент скачан:32 раза
Скачать  

29-11-2016 09:20 Через Вселенную Скачать торрент  

Название: Через Вселенную
Оригинальное название: Across the Univers
Год выпуска: 2007
Страна: США, Великобритания
Жанр: мюзикл, фэнтези, драма, мелодрама
Продолжительность: 02:13:18
Перевод: профессиональный многоголосый

Режиссёр: Джули Тэймор

В ролях: Ивэн Рэйчел Вуд, Джим Стёрджесс, Джо Андерсон, Дана Фукс, Сальма Хайек, Т.В. Карпио, Мартин Лютер, Боно, Эдди Иззард, Джо Кокер, Спенсер Лифф, Лиза Хогг, Кэрол Вудс, Николас Ламли, Майкл Райан, Анджела Монси, Логан Маршалл-Грин, Гарри Ленникс

Описание: История любви Джуда и Люси, которые встретились и полюбили друг друга в Америке образца 1968 года. Судьба подстраивает козни главным героям, которые вместе с несколькими друзьями и музыкантами оказываются втянутыми в зарождающиеся движения пацифистов и контркультуры. В роли проводников главных героев по миру шестидесятых выступают некие «Доктор Роберт» и «Мистер Кайт». Паре предстоит многое пережить, чтобы, в конце концов, убедиться в одной непреложной истине: «All you need is love»... Фильм-мюзикл основан на 34 композициях группы «Битлз» 1963—1969 годов в современном исполнении.



Качество: BDRip 720p Сравнение с исходником
Формат: MKV
Видео: MPEG-4 AVC, 4528 Кбит/с, 1280x534, 23,976 кадра/с
Аудио 1: русский, AC3, 640 kbps, 6 ch, 48 kHz [профессиональный многоголосый]
Аудио 2: английский, AC3, 448 kbps, 6 ch, 48 kHz [оригинал]
Субтитры 1: русские
Субтитры 2: английские
Имеются неименованные главы/чаптеры.
Общее
Уникальный идентификатор : 214172735787893351853658682049563265043 (0xA1202B23A3036004A19C6C8C22B90813)
Полное имя : D:\Video\Через Вселенную.2007.BDRip.720p by msltel.mkv
Формат : Matroska
Версия формата : Version 4 / Version 2
Размер файла : 5,23 Гбайт
Продолжительность : 2 ч. 13 м.
Общий поток : 5618 Кбит/сек
Название фильма : Rip by msltel
Дата кодирования : UTC 2016-11-29 02:44:35
Программа кодирования : mkvmerge v8.2.0 ('World of Adventure') 64bit
Библиотека кодирования : libebml v1.3.1 + libmatroska v1.4.2

Видео
Идентификатор : 1
Формат : AVC
Формат/Информация : Advanced Video Codec
Профиль формата : High@L4.1
Параметр CABAC формата : Да
Параметр ReFrames формата : 9 кадров
Идентификатор кодека : V_MPEG4/ISO/AVC
Продолжительность : 2 ч. 13 м.
Битрейт : 4528 Кбит/сек
Ширина : 1280 пикселей
Высота : 534 пикселя
Соотношение сторон : 2,40:1
Режим частоты кадров : Постоянный
Частота кадров : 23,976 (24000/1001) кадра/сек
Цветовое пространство : YUV
Субдискретизация насыщенности : 4:2:0
Битовая глубина : 8 бит
Тип развёртки : Прогрессивная
Бит/(Пиксели*Кадры) : 0.276
Размер потока : 4,22 Гбайт (81%)
Библиотека кодирования : x264 core 146 r2538 121396c
Настройки программы : cabac=1 / ref=9 / deblock=1:-1:-1 / analyse=0x3:0x113 / me=umh / subme=9 / psy=1 / psy_rd=1.00:0.15 / mixed_ref=1 / me_range=32 / chroma_me=1 / trellis=1 / 8x8dct=1 / cqm=0 / deadzone=21,11 / fast_pskip=0 / chroma_qp_offset=-3 / threads=6 / lookahead_threads=1 / sliced_threads=0 / nr=0 / decimate=1 / interlaced=0 / bluray_compat=0 / constrained_intra=0 / bframes=7 / b_pyramid=2 / b_adapt=2 / b_bias=0 / direct=1 / weightb=0 / open_gop=0 / weightp=2 / keyint=230 / keyint_min=23 / scenecut=40 / intra_refresh=0 / rc_lookahead=40 / rc=crf / mbtree=0 / crf=18.9 / qcomp=0.60 / qpmin=0 / qpmax=69 / qpstep=4 / vbv_maxrate=50000 / vbv_bufsize=62500 / crf_max=0.0 / nal_hrd=none / filler=0 / ip_ratio=1.40 / pb_ratio=1.30 / aq=1:1.00
Язык : English
Default : Да
Forced : Нет

Аудио #1
Идентификатор : 2
Формат : AC-3
Формат/Информация : Audio Coding 3
Расширение режима : CM (complete main)
Параметр Endianness формата : Big
Идентификатор кодека : A_AC3
Продолжительность : 2 ч. 13 м.
Вид битрейта : Постоянный
Битрейт : 640 Кбит/сек
Каналы : 6 каналов
Расположение каналов : Front: L C R, Side: L R, LFE
Частота : 48,0 КГц
Частота кадров : 31,250 кадров/сек (1536 spf)
Метод сжатия : С потерями
Размер потока : 610 Мбайт (11%)
Заголовок : MVO
Язык : Russian
Default : Да
Forced : Нет

Аудио #2
Идентификатор : 3
Формат : AC-3
Формат/Информация : Audio Coding 3
Расширение режима : CM (complete main)
Параметр Endianness формата : Big
Идентификатор кодека : A_AC3
Продолжительность : 2 ч. 13 м.
Вид битрейта : Постоянный
Битрейт : 448 Кбит/сек
Каналы : 6 каналов
Расположение каналов : Front: L C R, Side: L R, LFE
Частота : 48,0 КГц
Частота кадров : 31,250 кадров/сек (1536 spf)
Метод сжатия : С потерями
Размер потока : 427 Мбайт (8%)
Заголовок : original
Язык : English
Default : Нет
Forced : Нет

Текст #1
Идентификатор : 4
Формат : UTF-8
Идентификатор кодека : S_TEXT/UTF8
Идентификатор кодека/Информация : UTF-8 Plain Text
Продолжительность : 2 ч. 7 м.
Битрейт : 24 бит/сек
Count of elements : 652
Размер потока : 22,6 Кбайт (0%)
Заголовок : русские
Язык : Russian
Default : Нет
Forced : Нет

Текст #2
Идентификатор : 5
Формат : UTF-8
Идентификатор кодека : S_TEXT/UTF8
Идентификатор кодека/Информация : UTF-8 Plain Text
Продолжительность : 2 ч. 3 м.
Битрейт : 35 бит/сек
Count of elements : 952
Размер потока : 32,3 Кбайт (0%)
Заголовок : английские
Язык : English
Default : Нет
Forced : Нет

Меню
00:00:00.000 : :Chapter 01
00:02:20.098 : :Chapter 02
00:04:27.558 : :Chapter 03
00:08:49.237 : :Chapter 04
00:17:39.183 : :Chapter 05
00:20:35.817 : :Chapter 06
00:23:38.375 : :Chapter 07
00:32:37.664 : :Chapter 08
00:36:40.156 : :Chapter 09
00:42:12.196 : :Chapter 10
00:46:49.598 : :Chapter 11
00:53:01.386 : :Chapter 12
00:57:19.185 : :Chapter 13
01:01:17.090 : :Chapter 14
01:09:01.262 : :Chapter 15
01:13:00.918 : :Chapter 16
01:16:14.695 : :Chapter 17
01:20:24.986 : :Chapter 18
01:24:17.594 : :Chapter 19
01:29:31.491 : :Chapter 20
01:34:12.605 : :Chapter 21
01:38:44.877 : :Chapter 22
01:40:31.608 : :Chapter 23
01:45:32.284 : :Chapter 24
01:49:37.696 : :Chapter 25
01:53:41.606 : :Chapter 26
01:55:12.155 : :Chapter 27
01:59:14.605 : :Chapter 28
02:02:19.498 : :Chapter 29
02:05:41.408 : :Chapter 30

ВКОНТАКТЕpb.wtf



Скачать Через Вселенную через торрент http://s019.radikal.ru/i625/1611/87/9dbdd7fe4ffc.jpg Скачать фильм Через Вселенную через торрент бесплантно в хорошем качестве Описание: История любви Джуда и Люси, которые встретились и полюбили друг друга в Америке образца 1968 года. Судьба подстраивает козни ... 5 10 1
Info! Золотая раздача, скачанное не засчитывается.
Торрент: Зарегистрирован [2016-11-29 09:20] · скачан: 32 раз
Статус: √ проверено
Размер: 5.23 GB
Как cкачать? Как скачать Через Вселенную через торрент | qTorrent

% Раздел Тема Автор DL S | L
Ultra HD (UHD: 2K, 4K, 8K) — видео сверхвысокой чёткости [ 59.29 GB ] Через вселенную / Across the universe [2007 мюзикл UHD Blu-ray 2160p] MVO [] bober100 Скачать
1 | 0
Фильмы [HD 720p, 1080p] (Хороший звук DUB, MVO) [ 11.54 GB ] Через Вселенную / Across the Universe [2007 мюзикл BDRip 1080p от еnvy / NNNB] MVO еnvy Скачать
14 | 0
Фильмы [HD 720p, 1080p] (Хороший звук DUB, MVO) [ 13.47 GB ] Через Вселенную / Across the Universe [2007 мюзикл BDRip 1080p by msltel] MVO msltel Скачать
1 | 0

28-11-2019 20:33  

Отключить всю рекламу на сайте

    Дорогой пользователь! Огромная просьба, поблагодарите релизера, оцените раздачу и оставьте свои комментарий, если Вы скачали Через Вселенную через торрент бесплатно! Внесите свою лепту в развитие PiratBit!
    Комментировать посты могут только пользователи прошедшие не сложную регистрацию
    Показать сообщения:    

    Через Вселенную через торрент
    Скачать бесплатно Через Вселенную
    Через Вселенную скачать торрент
    Через Вселенную смотреть онлайн
    Cкачать фильм Через Вселенную бесплатно
    Через Вселенную скачать торрент в хорошем качестве
    Через Вселенную смотреть онлайн бесплатно в хорошем качестве


    Вы не можете начинать темы
    Вы не можете отвечать на сообщения
    Вы не можете редактировать свои сообщения
    Вы не можете удалять свои сообщения
    Вы не можете голосовать в опросах
    Вы не можете прикреплять файлы к сообщениям
    Вы можете скачивать файлы