Ссылка на приватное зеркало нашего сайта всего за 1$. Внимание количество ограничено!!!

2 сезон

iTunes

1 сезон

1

iTunes

iTunes

iTunes

1 сезон

RePack

30

ИГРА 18+

pack

ВАЖНО

!!Акция!!

Alien_RageХит недели

RePack

MK11
pack

Забери бонус

RePack

jed

!!Акция!!

Alien_Rage

RePack

fifa19

RePack

Assassins Creed: Odyssey

RePack

NEED FOR SPEED™ PAYBACK

4 сезон

9 сезон

Бесстыжие 9 сезон

Все сериалы

все сериалы на PB.wtf

RePack

FAR CRY 5
  

Дед Мороз - отморозок / Le père Noël est une ordure (Жан-Мари Пуаре) [1982, комедия, BDRip 720p by msltel] DVO pb.wtf

Дед Мороз - отморозок через торрент pb.wtf

Размер: 4.31 GB | Добавлен: 3 года 11 мес. назад | Торрент скачан:62 раза
Скачать  

29-11-2016 10:34 Дед Мороз - отморозок Скачать торрент  

Название: Дед мороз - отморозок
Оригинальное название: Le père Noël est une ordure
Год выпуска: 1982
Страна: Франция
Жанр: комедия
Продолжительность: 01:30:28
Перевод: профессиональный двухголосый

Режиссёр: Жан-Мари Пуаре

В ролях: Анемон, Жозиан Баласко, Мари-Анн Шазель, Кристиан Клавье, Жерар Жюньо, Тьерри Лермитт, Бруно Муано, Мартен Ламотт, Жак Франсуа, Клер Маньен, Мишель Блан, Жаннетта Батти, Пьер Бело, Мишель Бонне, Жан-Клод Буйо, Жан-Пьерр Клами, Жак Диссе, Жози Лафонт, Франсуа Ростен, Биме Суаре

Описание: Такое впечатление, что все сумасшедшие со всей Франции решили встретить Новый год вместе: Пьер и Тереза, не вполне вменяемые операторы парижского телефона доверия; Жозетта, городская дурочка с окраины с её нечистым на руку дружком Феликсом, подрабатывающим Дедом Морозом на улицах; а также все, кто мимо проходил, проезжал, пробегал... Праздничек получился — мама не горюй! Кстати, и без жертв не обошлось...



Качество: BDRip 720p Сравнение с исходником
Формат: MKV
Видео: MPEG-4 AVC, 6440 Кбит/с, 1204x720, 24 кадра/с
Аудио 1: русский, AC3, 192 kbps, 2 ch, 48 kHz [профессиональный двухголосый]
Аудио 2: французский, AC3, 192 kbps, 1 ch, 48 kHz [оригинал]
Имеются неименованные главы/чаптеры.
Общее
Уникальный идентификатор : 174895079840592022336005928536076867372 (0x83939130072B97409031484303E6572C)
Полное имя : D:\Video\Дед Мороз - отморозок.1982.BDRip.720p by msltel.mkv
Формат : Matroska
Версия формата : Version 4 / Version 2
Размер файла : 4,31 Гбайт
Продолжительность : 1 ч. 30 м.
Общий поток : 6827 Кбит/сек
Название фильма : Rip by msltel
Дата кодирования : UTC 2016-11-29 05:36:23
Программа кодирования : mkvmerge v8.2.0 ('World of Adventure') 64bit
Библиотека кодирования : libebml v1.3.1 + libmatroska v1.4.2

Видео
Идентификатор : 1
Формат : AVC
Формат/Информация : Advanced Video Codec
Профиль формата : High@L4.1
Параметр CABAC формата : Да
Параметр ReFrames формата : 9 кадров
Идентификатор кодека : V_MPEG4/ISO/AVC
Продолжительность : 1 ч. 30 м.
Битрейт : 6440 Кбит/сек
Ширина : 1204 пикселя
Высота : 720 пикселей
Соотношение сторон : 5:3
Режим частоты кадров : Постоянный
Частота кадров : 24,000 кадра/сек
Цветовое пространство : YUV
Субдискретизация насыщенности : 4:2:0
Битовая глубина : 8 бит
Тип развёртки : Прогрессивная
Бит/(Пиксели*Кадры) : 0.310
Размер потока : 4,07 Гбайт (94%)
Библиотека кодирования : x264 core 146 r2538 121396c
Настройки программы : cabac=1 / ref=9 / deblock=1:-3:-3 / analyse=0x3:0x113 / me=umh / subme=9 / psy=1 / psy_rd=1.00:0.15 / mixed_ref=1 / me_range=32 / chroma_me=1 / trellis=1 / 8x8dct=1 / cqm=0 / deadzone=21,11 / fast_pskip=0 / chroma_qp_offset=-3 / threads=6 / lookahead_threads=1 / sliced_threads=0 / nr=0 / decimate=1 / interlaced=0 / bluray_compat=0 / constrained_intra=0 / bframes=11 / b_pyramid=2 / b_adapt=2 / b_bias=0 / direct=1 / weightb=0 / open_gop=0 / weightp=2 / keyint=230 / keyint_min=23 / scenecut=40 / intra_refresh=0 / rc_lookahead=40 / rc=crf / mbtree=0 / crf=20.0 / qcomp=0.60 / qpmin=0 / qpmax=69 / qpstep=4 / vbv_maxrate=50000 / vbv_bufsize=62500 / crf_max=0.0 / nal_hrd=none / filler=0 / ip_ratio=1.40 / pb_ratio=1.30 / aq=1:1.00
Язык : French
Default : Да
Forced : Нет

Аудио #1
Идентификатор : 2
Формат : AC-3
Формат/Информация : Audio Coding 3
Расширение режима : CM (complete main)
Параметр Endianness формата : Big
Идентификатор кодека : A_AC3
Продолжительность : 1 ч. 30 м.
Вид битрейта : Постоянный
Битрейт : 192 Кбит/сек
Каналы : 2 канала
Расположение каналов : Front: L R
Частота : 48,0 КГц
Частота кадров : 31,250 кадров/сек (1536 spf)
Метод сжатия : С потерями
Размер потока : 124 Мбайт (3%)
Заголовок : DVO
Язык : Russian
Default : Да
Forced : Нет

Аудио #2
Идентификатор : 3
Формат : AC-3
Формат/Информация : Audio Coding 3
Расширение режима : CM (complete main)
Параметр Endianness формата : Big
Идентификатор кодека : A_AC3
Продолжительность : 1 ч. 30 м.
Вид битрейта : Постоянный
Битрейт : 192 Кбит/сек
Каналы : 1 канал
Расположение каналов : Front: C
Частота : 48,0 КГц
Частота кадров : 31,250 кадров/сек (1536 spf)
Метод сжатия : С потерями
Размер потока : 124 Мбайт (3%)
Заголовок : original
Язык : French
Default : Нет
Forced : Нет

Меню
00:00:00.000 : :Chapter 01
00:05:57.707 : :Chapter 02
00:13:31.665 : :Chapter 03
00:22:09.750 : :Chapter 04
00:29:20.375 : :Chapter 05
00:35:08.291 : :Chapter 06
00:45:04.333 : :Chapter 07
00:54:56.083 : :Chapter 08
00:59:20.166 : :Chapter 09
01:05:08.625 : :Chapter 10
01:12:57.082 : :Chapter 11
01:23:54.457 : :Chapter 12
01:30:27.791 : :Chapter 13

ВКОНТАКТЕpb.wtf



Скачать Дед Мороз - отморозок через торрент http://s019.radikal.ru/i624/1611/d8/46af6d7932f0.png Скачать фильм Дед Мороз - отморозок через торрент бесплантно в хорошем качестве Описание: Такое впечатление, что все сумасшедшие со всей Франции решили встретить Новый год вместе: Пьер и Тереза, не вполне вменяемые ... 10 10 4
Info! Золотая раздача, скачанное не засчитывается.
Торрент: Зарегистрирован [2016-11-29 10:34] · скачан: 62 раз
Статус: √ проверено
Размер: 4.31 GB
Как cкачать? Как скачать Дед Мороз - отморозок через торрент | qTorrent

% Раздел Тема Автор DL S | L
Фильмы [HD 720p, 1080p] (Хороший звук DUB, MVO) [ 10.82 GB ] Дед Мороз - отморозок / Le père Noël est une ordure [1982 BDRip 1080p by msltel] DVO msltel Скачать
1 | 0

28-11-2019 20:33  

Отключить всю рекламу на сайте

    Дорогой пользователь! Огромная просьба, поблагодарите релизера, оцените раздачу и оставьте свои комментарий, если Вы скачали Дед Мороз - отморозок через торрент бесплатно! Внесите свою лепту в развитие PiratBit!
    Комментировать посты могут только пользователи прошедшие не сложную регистрацию
    Показать сообщения:    

    Дед Мороз - отморозок через торрент
    Скачать бесплатно Дед Мороз - отморозок
    Дед Мороз - отморозок скачать торрент
    Дед Мороз - отморозок смотреть онлайн
    Cкачать фильм Дед Мороз - отморозок бесплатно
    Дед Мороз - отморозок скачать торрент в хорошем качестве
    Дед Мороз - отморозок смотреть онлайн бесплатно в хорошем качестве


    Вы не можете начинать темы
    Вы не можете отвечать на сообщения
    Вы не можете редактировать свои сообщения
    Вы не можете удалять свои сообщения
    Вы не можете голосовать в опросах
    Вы не можете прикреплять файлы к сообщениям
    Вы можете скачивать файлы