новый адрес
Ссылка на приватное зеркало всего за 1$. Внимание количество ограничено!!!

iTunes

1+1

iTunes

мы

WEB-DL

1

iTunes

Чернобыль

iTunes

Ральф против интернета

Лицензия

ПШазам

Лицензия

Оно 2

Лицензия

30
pack

Вам бонус

ВАЖНО

!!Акция!!

Alien_RageХит недели

RePack

Resident Evil 21

ИГРА 18+

pack

RePack

jed

!!Акция!!

Alien_Rage

RePack

fifa19

RePack

Assassins Creed: Odyssey

RePack

NEED FOR SPEED™ PAYBACK

3 сезон

9 сезон

Бесстыжие 9 сезон

Все сериалы

все сериалы на PB.wtf

RePack

FAR CRY 5
Ребята, катастрофически не хватает 1900р. для оплаты серверов за Октябрь (всвязи с блокировками трафик упал в 3 раза), 1-2р., выручайте.
  

Долгий путь (Леонид Гайдай, Валентин Невзоров) [1956, СССР, драма, SATRip от AVP Studio] pb.wtf

Долгий путь через торрент pb.wtf

Размер: 747 MB | Добавлен: 3 года назад | Торрент скачан:11 раз
Скачать  

29-11-2016 10:58 Долгий путь Скачать торрент  

Долгий путь
Страна: СССР
Производство: Мосфильм

Жанр: драма
Год выпуска: 1956
Продолжительность: 01:15:52

Перевод: Не требуется
Cубтитры: нет
Оригинальная аудиодорожка: русский

Режиссер: Леонид Гайдай, Валентин Невзоров

В ролях:
Сергей Яковлев, Кюнна Игнатова, Леонид Губанов, Владимир Белокуров, Никифор Колофидин, Александр Антонов, Георгий Бударов, Владимир Покровский, Иван Рыжов, Аполлон Ячницкий...
Полный список актёров

Описание:
По мотивам сибирских рассказов В. Г. Короленко «Ат-Даван» и «Чудная».
Станционный смотритель Кругликов был сослан в глухой сибирский посёлок много лет назад за то, что стрелял в своего начальника, генерала, потребовавшего, чтобы он поехал вместе с ним в качестве свата к любимой девушке Кругликова — Рае. На станцию привозят политическую ссыльную. Ею оказывается Рая. Несколько минут были бывшие жених и невеста рядом, а затем её снова повезли по этапу.

Источник: DVB
Качество видео: SATRip
Формат видео: AVI

Видео: 672x496 (4:3), 25 fps, XviD ~ 1240 kbps avg, 0.149 bit/pixel
Аудио: 48 kHz, MP3 2.0, 128 kbps

Раздача от:
Общее
Полное имя : Dolgiy.put.1956.SATRip_[New-team]_by_AVP_Studio.avi
Формат : AVI
Формат/Информация : Audio Video Interleave
Размер файла : 747 Мбайт
Продолжительность : 1 ч. 15 м.
Общий поток : 1378 Кбит/сек
Программа кодирования : VirtualDubMod 1.5.10.3 | www.virtualdub-fr.org || (build 2550/release)
Библиотека кодирования : VirtualDubMod build 2550/release

Видео
Идентификатор : 0
Формат : MPEG-4 Visual
Профиль формата : Advanced Simple@L5
Параметр BVOP формата : 1
Параметр QPel формата : Нет
Параметр GMC формата : Без точки перехода
Параметр матрицы формата : Выборочная
Идентификатор кодека : XVID
Идентификатор кодека/Подсказка : XviD
Продолжительность : 1 ч. 15 м.
Битрейт : 1240 Кбит/сек
Ширина : 672 пикселя
Высота : 496 пикселей
Соотношение сторон : 4:3
Частота кадров : 25,000 кадров/сек
Цветовое пространство : YUV
Субдискретизация насыщенности : 4:2:0
Битовая глубина : 8 бит
Тип развёртки : Прогрессивная
Метод сжатия : С потерями
Бит/(Пиксели*Кадры) : 0.149
Размер потока : 673 Мбайт (90%)
Библиотека кодирования : XviD 1.2.1 (UTC 2008-12-04)

Аудио
Идентификатор : 1
Формат : MPEG Audio
Версия формата : Version 1
Профиль формата : Layer 3
Идентификатор кодека : 55
Идентификатор кодека/Подсказка : MP3
Продолжительность : 1 ч. 15 м.
Вид битрейта : Постоянный
Битрейт : 128 Кбит/сек
Каналы : 2 канала
Частота : 48,0 КГц
Метод сжатия : С потерями
Размер потока : 69,5 Мбайт (9%)
Выравнивание : Соединение по промежуткам
Продолжительность промежутка : 40 мс. (1,00 видеокадр)
Время предзагрузки промежутка : 504 мс.
Библиотека кодирования : LAME3.99r
Настройки программы : -m s -V 4 -q 2 -lowpass 17 -b 128
pb.wtf



Скачать Долгий путь через торрент http://s019.radikal.ru/i610/1611/7e/d3736437b75d.png Скачать фильм Долгий путь через торрент бесплантно в хорошем качестве Описание:По мотивам сибирских рассказов В. Г. Короленко «Ат-Даван» и «Чудная».Станционный смотритель Кругликов был сослан в глухой ... 10 10 1
Info! Золотая раздача, скачанное не засчитывается.
Торрент: Зарегистрирован [2016-11-29 10:58] · скачан: 11 раз
Статус: √ проверено
Размер: 747 MB
Как cкачать? Как скачать Долгий путь через торрент | qTorrent

% Раздел Тема Автор DL S | L
Наши сериалы [ 55.99 GB ] Долгий путь домой / Сезон: 1 / Серии: 1-16 из 16 [2014 HDTV 1080i] bober100 Скачать
1 | 0
Ultra HD (UHD: 2K, 4K, 8K) — видео сверхвысокой чёткости [ 84.39 GB ] Долгий путь Билли Линна в перерыве футбольного матча / Billy Lynn's Long Halftime Walk [2016 военный UHD Blu-ray EUR 2160p] MVO [] sheker187 Скачать
1 | 0
3D Фильмы [ 21.19 GB ] Долгий путь Билли Линна в перерыве футбольного матча в 3Д / Billy Lynn's Long Halftime Walk 3D [2016 Военный BDrip 1080p] OverUnder / Вертикальная стереопара serega768 Скачать
1 | 0
Ultra HD (UHD: 2K, 4K, 8K) — видео сверхвысокой чёткости [ 71.95 GB ] Долгий путь Билли Линна в перерыве футбольного матча / Billy Lynn's Long Halftime Walk [2016 военный UHD BDRemux 2160p] MVO [ BD EUR] bober100 Скачать
1 | 0
Фильмы 2016 [DVDrip, WEB-DLRip, HDrip] (DUB, MVO) [ 2.7 GB ] Долгий путь Билли Линна в перерыве футбольного матча / Billy Lynn's Long Halftime Walk [2016 военный экранизация BDRip-AVC] MVO [] bober100 Скачать
1 | 0
Фильмы [HD 720p, 1080p] (Хороший звук DUB, MVO) [ 7.95 GB ] Долгий путь Билли Линна в перерыве футбольного матча / Billy Lynn's Long Halftime Walk [2016 военный BDRip 1080p от еnvy / NNNB] MVO | еnvy Скачать
1 | 0
Фильмы 2016 [DVDrip, WEB-DLRip, HDrip] (DUB, MVO) [ 2.18 GB ] Долгий путь Билли Линна в перерыве футбольного матча / Billy Lynn's Long Halftime Walk [2016 военный BDRip] многоголосый [] Twi7ter Скачать
1 | 0

28-11-2019 20:33  

Отключить всю рекламу на сайте

    Дорогой пользователь! Огромная просьба, поблагодарите релизера, оцените раздачу и оставьте свои комментарий, если Вы скачали Долгий путь через торрент бесплатно! Внесите свою лепту в развитие PiratBit!
    Комментировать посты могут только пользователи прошедшие не сложную регистрацию
    Показать сообщения:    

    Долгий путь через торрент
    Скачать бесплатно Долгий путь
    Долгий путь скачать торрент
    Долгий путь смотреть онлайн
    Cкачать фильм Долгий путь бесплатно
    Долгий путь скачать торрент в хорошем качестве
    Долгий путь смотреть онлайн бесплатно в хорошем качестве


    Вы не можете начинать темы
    Вы не можете отвечать на сообщения
    Вы не можете редактировать свои сообщения
    Вы не можете удалять свои сообщения
    Вы не можете голосовать в опросах
    Вы не можете прикреплять файлы к сообщениям
    Вы можете скачивать файлы