новый адрес
Ссылка на приватное зеркало всего за 1$. Внимание количество ограничено!!!

iTunes

1+1

iTunes

мы

WEB-DL

1

iTunes

Чернобыль

iTunes

Ральф против интернета

Лицензия

ПШазам

Лицензия

Оно 2

Лицензия

30
pack

Вам бонус

ВАЖНО

!!Акция!!

Alien_RageХит недели

RePack

Resident Evil 21

ИГРА 18+

pack

RePack

jed

!!Акция!!

Alien_Rage

RePack

fifa19

RePack

Assassins Creed: Odyssey

RePack

NEED FOR SPEED™ PAYBACK

3 сезон

9 сезон

Бесстыжие 9 сезон

Все сериалы

все сериалы на PB.wtf

RePack

FAR CRY 5
Ребята, катастрофически не хватает 1900р. для оплаты серверов за Октябрь (всвязи с блокировками трафик упал в 3 раза), 1-2р., выручайте.
  

Путешественники / Travelers / Сезон 1 / Серии 1-12 из 12 (Энди Микита / Andy Mikita, Мартин Вуд / Martin Wood, Уильям Варинг / William Waring) [2016 , Канада, фантастика, WEB-DLRip-AVC] MVO [BaibaKo] pb.wtf

Путешественники через торрент pb.wtf

Размер: 10.17 GB | Добавлен: 2 года 10 мес. назад | Торрент скачан:321 раз
Скачать  

30-11-2016 01:12 Путешественники Скачать торрент  

Путешественники / Travelers


  • Год выпуска: 2016
  • Страна: Канада
  • Жанр: фантастика
  • Продолжительность: 00:45:04 (Серия)
  • Перевод: Профессиональный многоголосый [BaibaKo]
  • Режиссер: Энди Микита / Andy Mikita, Мартин Вуд / Martin Wood, Уильям Варинг / William Waring
  • В ролях:

    МакКензи Портер (Marcy Warton), Неста Купер (Carly Shannon), Эрик МакКормак (Grant MacLaren), Джаред Абрахамсон (Trever Holden), Рейли Долмэн (Philip Pearson), Патрик Гилмор (David Mailer), Леа Кейрнс (Kathryn Maclaren), Дж. Алекс Бринсон (Jeff Conniker), Дженнифер Спенс (Grace Day), Уильям МакДональд (Gary Holden), Кристин Кофски (Officer Boyd), Иэн Трейси


  • Через сотни лет оставшиеся в живых люди нашли способ отправлять сознание отдельных личностей в 21-й век. Эти путешественники во времени живут жизнью обычных людей и пытаются спасти человечество от ужасного будущего.
  • Рейтинг:



  • Качество: WEB-DLRip-AVC
  • Формат: :MPEG-4
  • Видео кодек: AVC
  • Аудио кодек: AC3
  • Видео: 1024x512 (2.000), 2000 kbps, 23,976 fps, 0,159 bpp
  • Аудио №1: русский / 5.1 / 48 kHz / 384 kbps / 16 bit |[BaibaKo]|
  • Аудио №2: английский / 5.1 / 48 kHz / 384 kbps / 16 bit
  • Релиз от: GEKADOL

    Внимание! Раздача ведётся путём добавления новых серий; при каждом добавлении создаётся новый торрент. Чтобы начать докачку новой серии, пользователям необходимо сделать следующее:
    (1) остановить скачивание,
    (2) удалить старый торрент у себя из клиента (старые серии удалять не надо),
    (3) скачать новый торрент и запустить его у себя в клиенте вместо старого, при этом указать клиенту путь в старую папку куда и должно происходить скачивание новых серий.
    Ваш клиент при этом должен произвести хеширование (проверку) старой папки (если не производит сам - помогите ему сделать это), и будет докачивать только те серии которых у вас ещё нет. Старые серии при этом не удаляются, а продолжают раздаваться!
    Eсли вы уже удалили старые серии, то предотвратить повторную закачку старых серий можно, отжав галочку в соответствующих местах при запуске нового торрента. По возможности, желательно не удалять старые серии как можно дольше чтобы релизёр не столько продолжал раздавать старые серии, а смог сконцентрироваться на новых.

    General
    Complete name : H:\Путешественники (Travelers 1)\Travelers.s01e01.WEB-DLRip-AVC.Rus.Eng.BaibaKo.tv.mp4
    Format : MPEG-4
    Format profile : Base Media
    Codec ID : isom (isom/iso2/avc1/mp41)
    File size : 867 MiB
    Duration : 45 min
    Overall bit rate : 2 689 kb/s
    Writing application : XviD4PSP 7.0.324 DAILY
    HDVideo : Yes
    encoding_info : MATROSKA / WEBM > MP4 Произвольный / H264 > X264 CBR 2000kbps HQ / AC3 > AC3 CBR 384kbps / AC3 > AC3 CBR 384kbps

    Video
    ID : 1
    Format : AVC
    Format/Info : Advanced Video Codec
    Format profile : High@L3.1
    Format settings, CABAC : Yes
    Format settings, ReFrames : 4 frames
    Codec ID : avc1
    Codec ID/Info : Advanced Video Coding
    Duration : 45 min
    Bit rate : 2 000 kb/s
    Width : 1 024 pixels
    Height : 512 pixels
    Display aspect ratio : 2.000
    Frame rate mode : Constant
    Frame rate : 23.976 (24000/1001) FPS
    Color space : YUV
    Chroma subsampling : 4:2:0
    Bit depth : 8 bits
    Scan type : Progressive
    Bits/(Pixel*Frame) : 0.159
    Stream size : 618 MiB (71%)
    Writing library : x264 core 148 r2721M 72d53ab
    Encoding settings : cabac=1 / ref=3 / deblock=1:-1:-1 / analyse=0x3:0x133 / me=hex / subme=7 / psy=1 / psy_rd=1.00:0.20 / mixed_ref=1 / me_range=16 / chroma_me=1 / trellis=1 / 8x8dct=1 / cqm=0 / deadzone=21,11 / fast_pskip=1 / chroma_qp_offset=-3 / threads=5 / lookahead_threads=1 / sliced_threads=0 / nr=0 / decimate=1 / interlaced=0 / bluray_compat=0 / constrained_intra=0 / bframes=3 / b_pyramid=2 / b_adapt=2 / b_bias=0 / direct=3 / weightb=1 / open_gop=0 / weightp=2 / keyint=230 / keyint_min=23 / scenecut=40 / intra_refresh=0 / rc_lookahead=40 / rc=cbr / mbtree=1 / bitrate=2000 / ratetol=1.0 / qcomp=0.60 / qpmin=0 / qpmax=69 / qpstep=4 / vbv_maxrate=2000 / vbv_bufsize=2000 / nal_hrd=none / filler=0 / ip_ratio=1.40 / aq=1:1.00
    Color range : Limited
    Color primaries : BT.709
    Transfer characteristics : BT.709
    Matrix coefficients : BT.709

    Audio #1
    ID : 2
    Format : AC-3
    Format/Info : Audio Coding 3
    Mode extension : CM (complete main)
    Format settings, Endianness : Big
    Codec ID : ac-3
    Duration : 45 min
    Bit rate mode : Constant
    Bit rate : 384 kb/s
    Channel(s) : 6 channels
    Channel positions : Front: L C R, Side: L R, LFE
    Sampling rate : 48.0 kHz
    Frame rate : 31.250 FPS (1536 spf)
    Bit depth : 16 bits
    Compression mode : Lossy
    Stream size : 124 MiB (14%)
    Language : Russian
    Default : Yes
    Alternate group : 1

    Audio #2
    ID : 3
    Format : AC-3
    Format/Info : Audio Coding 3
    Mode extension : CM (complete main)
    Format settings, Endianness : Big
    Codec ID : ac-3
    Duration : 45 min
    Bit rate mode : Constant
    Bit rate : 384 kb/s
    Channel(s) : 6 channels
    Channel positions : Front: L C R, Side: L R, LFE
    Sampling rate : 48.0 kHz
    Frame rate : 31.250 FPS (1536 spf)
    Bit depth : 16 bits
    Compression mode : Lossy
    Stream size : 124 MiB (14%)
    Language : English
    Default : No
    Alternate group : 1



    Скриншоты:
    скриншот   скриншот   скриншот   скриншот   скриншот   скриншот   скриншот  
    скриншот  

    Раздача ведётся путём добавления новых серий. Добавлена 12 серия (06.02.2017).Просьба перекачать торрент файл.

    pb.wtf



  • Скачать Путешественники через торрент http://i85.fastpic.ru/big/2016/1130/74/755d70277e964ee184dd95d76b2af174.jpg Скачать фильм Путешественники через торрент бесплантно в хорошем качестве qw.png Через сотни лет оставшиеся в живых люди нашли способ отправлять сознание отдельных личностей в 21-й век. Эти путешественники во ... 9.1 10 16
    Info! Золотая раздача, скачанное не засчитывается.
    Торрент: Зарегистрирован [2017-02-06 02:35] · скачан: 321 раз
    Статус: √ проверено
    Размер: 10.17 GB
    Как cкачать? Как скачать Путешественники через торрент | qTorrent

    % Раздел Тема Автор DL S | L
    Зарубежные сериалы [ 14.38 GB ] Путешественники / Travelers / Сезон: 2 / Серии 1-12 из 12 [2017 WEBRip 1080p] [MVO ] killermax2013 Скачать
    1 | 0
    Зарубежные сериалы [ 14.94 GB ] Путешественники / Travelers / Сезон: 2 / Серии 1-12 из 12 [2017 WEB-DL 720p] MVO [BaibaKo] GEKADOL Скачать
    1 | 0


    Последний раз редактировалось: GEKADOL (2017-02-06 02:35), всего редактировалось 9 раз(а)

    28-11-2019 20:33  

    Отключить всю рекламу на сайте

    30-11-2016 06:43 Путешественники Скачать торрент  

    Первая серия очень понравилась и заинтриговала, буду смотреть !
    Мартин Вуд и Бред Райт фигню не снимут !))
    Хочу все шесть серий .
    Автору спасибо ! pb.wtf



    02-12-2016 01:54 Путешественники Скачать торрент  

    Chuvackk писал(а):

    Первая серия очень понравилась и заинтриговала, буду смотреть !
    Мартин Вуд и Бред Райт фигню не снимут !))
    Хочу все шесть серий .
    Автору спасибо !

    pb.wtf



    31-01-2019 10:22 Путешественники Скачать торрент  

    начало неплохое, посмотрим что будет дальшеpb.wtf



      Дорогой пользователь! Огромная просьба, поблагодарите релизера, оцените раздачу и оставьте свои комментарий, если Вы скачали Путешественники через торрент бесплатно! Внесите свою лепту в развитие PiratBit!
      Комментировать посты могут только пользователи прошедшие не сложную регистрацию
      Показать сообщения:    

      Путешественники через торрент
      Скачать бесплатно Путешественники
      Путешественники скачать торрент
      Путешественники смотреть онлайн
      Cкачать фильм Путешественники бесплатно
      Путешественники скачать торрент в хорошем качестве
      Путешественники смотреть онлайн бесплатно в хорошем качестве


      Вы не можете начинать темы
      Вы не можете отвечать на сообщения
      Вы не можете редактировать свои сообщения
      Вы не можете удалять свои сообщения
      Вы не можете голосовать в опросах
      Вы не можете прикреплять файлы к сообщениям
      Вы можете скачивать файлы