Всегда рабочее зеркало просто перед .vidak.icu напиши любое слово или цифру, Пример http://q5q.vidak.icu

>

7.4

iTunes

7.4

2 сезон

6.6

iTunes

1

7.4

2 сезон

7.2

iTunes

6.0

MVO

13

6.1

iTunes

8.3

Пиратка

30

ULTIMATE

pack

9.9

Лицензия

ВАЖНО

ИГРА 18+

pack

7.3

RePack

MK11

7.7

RePack

jed

7.8

RePack

fifa19

8.5

RePack

RDR2

RePack

NEED FOR SPEED™ PAYBACK

1 сезон

9 сезон

Бесстыжие 9 сезон

Все сериалы

все сериалы на PB.wtf

RePack

FAR CRY 5

Anonymous, доброй ночи, мы катастрофически не успеваем собрать деньги на оплату серверов, помогите нам пожалуйста 5,10,15р., для нас важна любая помощь . В качестве благодарности мы отключим Вам всю рекламу на сайте (укажите свой ник в строку Ваше имя)!

×
  
Magnet ссылка

Класс 1984 / Class of 1984 (Марк Л. Лестер) [1982, боевик, триллер, драма, криминал, BDRip 1080p от еnvy / NNNB] AVO pb.wtf

Класс 1984 через торрент pb.wtf

Качают: 2 [ 0 KB/s ]
Размер: 7.76 GB | Добавлен: 5 лет 1 мес. назад | Торрент скачан:28 раз
Смотреть онлайн Класс 1984 | Скачать    Ребята, помогите собрать деньги на оплату серверов!!!

30-11-2016 14:24 Класс 1984 Скачать торрент  

Информация о фильме

Русское название: Класс 1984
Оригинальное название: Class of 1984
Год выхода: 1982
Жанр: боевик, триллер, драма, криминал
Режиссер: Марк Л. Лестер
Выпущено: Великобритания, США
Продолжительность: 01:38:13
Перевод: Авторский (Одноголосый, закадровый)
В ролях: Перри Кинг, Мерри Линн Росс, Родди МакДауэлл, Тимоти Ван Паттен, Майкл Джей Фокс, Эл Уэксмэн
Сюжет фильма

Банда оголтелых школьников преследует нового учителя, решившего навести в классе порядок. Озверевшие панки-школьники во главе с учеником-психопатом избивают его, а жену насилуют. Месть учителя не уступает по жестокости выходкам банды, но заметно превосходит их по изощренности.


Файл

Качество: BDRip 1080p (исходник Blu-Ray Disc Remux)
Формат: MKV
Видео: 1916x1078, 10414 Кбит/сек, 23,976 кадр/сек, AVC, x264, High@L4.1, 16:9, 0.210 Бит/[Пиксели*Кадры]
Аудио 1: AC-3, 448 Кбит/сек, 6 канала(ов), 48,0 КГц - Одноголосый закадровый, А.Гаврилов / Русский
Аудио 2: AC-3, 448 Кбит/сек, 6 канала(ов), 48,0 КГц - Оригинал / Английский
Субтитры: Английские | Полные
Форсированные субтитры: Нет
Чаптеры (Главы): Есть






Автор Рипа: Группа:


Format : Matroska
Format version : Version 2
File size : 7.76 GiB
Duration : 1 h 38 min
Overall bit rate : 11.3 Mb/s
Movie name : Class of 1984.(1982).BDRip.1080p.[envy]
Encoded date : UTC 2016-11-30 13:32:18
Writing application : mkvmerge v5.8.0 ('No Sleep / Pillow') built on Sep 2 2012 15:37:04
Writing library : libebml v1.2.3 + libmatroska v1.3.0

Video
ID : 1
Format : AVC
Format/Info : Advanced Video Codec
Format profile : High@L4.1
Format settings, CABAC : Yes
Format settings, ReFrames : 4 frames
Codec ID : V_MPEG4/ISO/AVC
Duration : 1 h 38 min
Bit rate : 10.4 Mb/s
Width : 1 916 pixels
Height : 1 078 pixels
Display aspect ratio : 16:9
Original display aspect rat : 16:9
Frame rate mode : Constant
Frame rate : 23.976 (24000/1001) FPS
Color space : YUV
Chroma subsampling : 4:2:0
Bit depth : 8 bits
Scan type : Progressive
Bits/(Pixel*Frame) : 0.210
Stream size : 6.99 GiB (90%)
Title : Class of 1984.(1982).BDRip.1080p.[envy]
Writing library : x264 core 148 r2721 72d53ab
Encoding settings : cabac=1 / ref=4 / deblock=1:-3:-3 / analyse=0x3:0x113 / me=umh / subme=11 / psy=1 / psy_rd=1.00:0.00 / mixed_ref=1 / me_range=32 / chroma_me=1 / trellis=2 / 8x8dct=1 / cqm=0 / deadzone=21,11 / fast_pskip=0 / chroma_qp_offset=-2 / threads=12 / lookahead_threads=1 / sliced_threads=0 / nr=0 / decimate=1 / interlaced=0 / bluray_compat=0 / constrained_intra=0 / bframes=6 / b_pyramid=2 / b_adapt=2 / b_bias=0 / direct=3 / weightb=1 / open_gop=0 / weightp=2 / keyint=240 / keyint_min=23 / scenecut=40 / intra_refresh=0 / rc=2pass / mbtree=0 / bitrate=10414 / ratetol=2.0 / qcomp=0.60 / qpmin=0 / qpmax=69 / qpstep=4 / cplxblur=20.0 / qblur=0.5 / ip_ratio=1.40 / pb_ratio=1.30 / aq=2:0.80
Language : English
Default : Yes
Forced : No

Audio #1
ID : 2
Format : AC-3
Format/Info : Audio Coding 3
Mode extension : CM (complete main)
Format settings, Endianness : Big
Codec ID : A_AC3
Duration : 1 h 38 min
Bit rate mode : Constant
Bit rate : 448 kb/s
Channel(s) : 6 channels
Channel positions : Front: L C R, Side: L R, LFE
Sampling rate : 48.0 kHz
Frame rate : 31.250 FPS (1536 spf)
Compression mode : Lossy
Stream size : 315 MiB (4%)
Title : AVO Гаврилов
Language : Russian
Default : Yes
Forced : No

Audio #2
ID : 3
Format : AC-3
Format/Info : Audio Coding 3
Mode extension : CM (complete main)
Format settings, Endianness : Big
Codec ID : A_AC3
Duration : 1 h 38 min
Bit rate mode : Constant
Bit rate : 448 kb/s
Channel(s) : 6 channels
Channel positions : Front: L C R, Side: L R, LFE
Sampling rate : 48.0 kHz
Frame rate : 31.250 FPS (1536 spf)
Compression mode : Lossy
Stream size : 315 MiB (4%)
Title : Eng
Language : English
Default : No
Forced : No

Text
ID : 4
Format : UTF-8
Codec ID : S_TEXT/UTF8
Codec ID/Info : UTF-8 Plain Text
Title : Eng full
Language : English
Default : No
Forced : No

Menu
00:00:00.000 : :Chapter 01
00:10:40.264 : :Chapter 02
00:17:39.141 : :Chapter 03
00:26:31.840 : :Chapter 04
00:35:56.696 : :Chapter 05
00:45:00.864 : :Chapter 06
00:53:28.121 : :Chapter 07
01:00:39.510 : :Chapter 08
01:07:26.208 : :Chapter 09
01:16:55.027 : :Chapter 10
01:22:54.427 : :Chapter 11
01:30:46.399 : :Chapter 12

pb.wtf



Скачать Класс 1984 через торрент http://img11.lostpic.net/2016/11/30/444b65deb50a97866e4b8e978c4e0900.png Скачать, смотреть онлайн Класс 1984 бесплантно в хорошем качестве В ролях: Перри Кинг, Мерри Линн Росс, Родди МакДауэлл, Тимоти Ван Паттен, Майкл Джей Фокс, Эл УэксмэнСюжет фильмаБанда оголтелых школьников ... 10 10 2
Info! Золотая раздача, скачанное не засчитывается.
Торрент: Зарегистрирован [2016-11-30 14:29] · скачан: 28 раз
Статус: √ проверено
Размер: 7.76 GB
Как cкачать? Как скачать Класс 1984 через торрент | UTorrent

% Раздел Тема Автор DL S | L
# Фильмы с авторской озвучкой [ 2.14 GB ] Класс 1984 / Школа 1984 / Class of 1984 [1982 BDRip-AVC] [AVO] killermax2013 Скачать
1 | 0
Фильмы с авторской озвучкой [ 4.37 GB ] Класс 1984 / Class of 1984 [1982 BDRip 720p от еnvy / NNNB] AVO еnvy Скачать
2 | 1

28-11-2019 20:33  

Отключить всю рекламу на сайте

    Дорогой пользователь! Огромная просьба, поблагодарите релизера, оцените раздачу и оставьте свои комментарий, если Вы скачали Класс 1984 через торрент бесплатно!
    Комментировать посты могут только пользователи прошедшие не сложную регистрацию
    Показать сообщения:    

    Класс 1984 через торрент
    Скачать бесплатно Класс 1984
    Класс 1984 скачать торрент
    Класс 1984 смотреть онлайн
    Cкачать фильм Класс 1984 бесплатно
    Класс 1984 скачать торрент в хорошем качестве
    Класс 1984 смотреть онлайн бесплатно в хорошем качестве


    Вы не можете начинать темы
    Вы не можете отвечать на сообщения
    Вы не можете редактировать свои сообщения
    Вы не можете удалять свои сообщения
    Вы не можете голосовать в опросах
    Вы не можете прикреплять файлы к сообщениям
    Вы можете скачивать файлы