Ссылка на приватное зеркало всего за 1$. Внимание количество ограничено!!!

iTunes

iTunes

iTunes

1

iTunes

iTunes

iTunes

iTunes

iTunes

30
pack

$ от Little Big

ВАЖНО

!!Акция!!

Alien_RageХит недели

RePack

Resident Evil 21

ИГРА 18+

pack

RePack

jed

!!Акция!!

Alien_Rage

RePack

fifa19

RePack

Assassins Creed: Odyssey

RePack

NEED FOR SPEED™ PAYBACK

4 сезон

9 сезон

Бесстыжие 9 сезон

Все сериалы

все сериалы на PB.wtf

RePack

FAR CRY 5
  

С вещами на вылет! / Débarquement immédiat! (Филипп де Шоврон) [2016, Комедия, WEB-DL 1080p] [DUB] [Лицензия / iTunes] pb.wtf

С вещами на вылет! через торрент pb.wtf

Размер: 3.35 GB | Добавлен: 3 года 7 мес. назад | Торрент скачан:572 раза
Скачать  

30-11-2016 21:21 С вещами на вылет! Скачать торрент  

С вещами на вылет! / Débarquement immédiat!
Год выпуска: 2016
Жанр: Комедия
Выпущено: Франция, Canal+ [fr], Ciné, La Banque Postale Image 9
Продолжительность: 01:27:18
Перевод: Дублированный [Лицензия / iTunes]
Субтитры: нет

Режиссер: Филипп де Шоврон

В ролях: Эри Абиттан, Меди Садун, Сириль Леконт, Слиман Дази, Рем Кериси, Лоик Лежандр, Эдгар Живри, Ивонн Граделе

О фильме: Несгибаемый коп Хосе Фернандес получает задание экстрадировать в Кабул обычного человека по имени Аким, которого по ошибке приняли за террориста. Аким никогда прежде не был ни в каком Кабуле, но для Хосе это не имеет никакого значения. Задание должно быть выполнено. Однако вынужденная посадка в Мальте внезапно меняет все карты. Теперь Хосе самого принимают за араба и им обоим приходится пуститься в бега.



Качество: WEB-DL 1080p
Формат: MKV
Видео: MPEG-4 AVC, 4999 Кбит/с, 1920x1078, 25.000 fps
Аудио: 48.0 KHz, AC3, 6 ch, 384 Kbps
General
Unique ID : 244645042435810569663592290520053907671 (0xB80CEBDA23D33C99847FF8677B4100D7)
Complete name : E:\S.VesCHAmo.Na.ViHOd.2O16.D.WEB-DL.1O8Op_KOSHARA.mkv
Format : Matroska
Format version : Version 2
File size : 3.35 GiB
Duration : 1h 27mn
Overall bit rate : 5 493 Kbps
Encoded date : UTC 2016-11-30 19:17:35
Writing application : mkvmerge v8.3.0 ('Over the Horizon') 64bit
Writing library : libebml v1.3.1 + libmatroska v1.4.2

Video
ID : 1
Format : AVC
Format/Info : Advanced Video Codec
Format profile : High@L4
Format settings, CABAC : Yes
Format settings, ReFrames : 4 frames
Codec ID : V_MPEG4/ISO/AVC
Duration : 1h 27mn
Bit rate : 4 999 Kbps
Width : 1 920 pixels
Height : 1 078 pixels
Display aspect ratio : 16:9
Frame rate mode : Constant
Frame rate : 25.000 fps
Color space : YUV
Chroma subsampling : 4:2:0
Bit depth : 8 bits
Scan type : Progressive
Bits/(Pixel*Frame) : 0.097
Stream size : 3.05 GiB (91%)
Language : English
Default : Yes
Forced : No
Color range : Limited
Color primaries : BT.709
Transfer characteristics : BT.709
Matrix coefficients : BT.709

Audio
ID : 2
Format : AC-3
Format/Info : Audio Coding 3
Mode extension : CM (complete main)
Format settings, Endianness : Big
Codec ID : A_AC3
Duration : 1h 27mn
Bit rate mode : Constant
Bit rate : 384 Kbps
Channel(s) : 6 channels
Channel positions : Front: L C R, Side: L R, LFE
Sampling rate : 48.0 KHz
Compression mode : Lossy
Stream size : 240 MiB (7%)
Language : Russian
Default : Yes
Forced : No
pb.wtf



Скачать С вещами на вылет! через торрент http://i85.fastpic.ru/big/2016/1130/4f/69c1838cb6a3c8098e82c6c52c758c4f.jpg Скачать фильм С вещами на вылет! через торрент бесплантно в хорошем качестве О фильме: Несгибаемый коп Хосе Фернандес получает задание экстрадировать в Кабул обычного человека по имени Аким, которого по ошибке ... 9.4 10 20
Торрент: Зарегистрирован [2016-11-30 21:21] · скачан: 572 раз
Статус: √ проверено
Размер: 3.35 GB
Как cкачать? Как скачать С вещами на вылет! через торрент | qTorrent

% Раздел Тема Автор DL S | L
Фильмы 2016 [DVDrip, WEB-DLRip, HDrip] (DUB, MVO) [ 1.37 GB ] С вещами на вылет! / Débarquement immédiat! [2016 WEB-DLRip] killermax2013 Скачать
1 | 0

28-11-2019 20:33  

Отключить всю рекламу на сайте

01-12-2016 06:18 С вещами на вылет! Скачать торрент  

да не бывает у кошары 1080p - всегда мыльная картинка, как при апскейле.pb.wtf



01-12-2016 06:20 С вещами на вылет! Скачать торрент  

вообще, давно жду, когда релизы от кошары вообще запретят - картинка в 100% случаев НЕ соответствует битрейту, т.к ВСЕГДА пережатка по объективным причинам - хардсаб реклама.pb.wtf



01-12-2016 08:58 С вещами на вылет! Скачать торрент  

sergunka писал(а):

да не бывает у кошары 1080p - всегда мыльная картинка, как при апскейле.

какой кошара ? они сперли релиз у хдклаба и за свой выдали
на клабе вчера по быстрому раздали а кошарники еще часа два на ручнике стояли
pb.wtf



01-12-2016 09:40 С вещами на вылет! Скачать торрент  

спасибо за твой за труд, но смотреть релизы от KOSHARы нет никакого желания.Ждем нормальный смотрибельный релиз.pb.wtf



01-12-2016 10:02 С вещами на вылет! Скачать торрент  

shapenchik писал(а):

спасибо за твой за труд, но смотреть релизы от KOSHARы нет никакого желания.Ждем нормальный смотрибельный релиз.

facepalm читаем комент выше.
Скачайте релиз с хдклаба и сверьте с этим, может тогда все прояснится
pb.wtf



01-12-2016 17:06 С вещами на вылет! Скачать торрент  

просто вспоминаю озвучку от кошар где переводит баба с картаво залипшимВгорле языком.... кровь начинает из ушей идти....pb.wtf



02-12-2016 21:10 С вещами на вылет! Скачать торрент  

Не знаю про что Вы, релиз нормальный и звук и видео, спасибо.pb.wtf



02-12-2016 22:11 С вещами на вылет! Скачать торрент  

w.a.s.p. писал(а):

Не знаю про что Вы, релиз нормальный и звук и видео, спасибо.

согласен но перевод недублированыйpb.wtf



    Дорогой пользователь! Огромная просьба, поблагодарите релизера, оцените раздачу и оставьте свои комментарий, если Вы скачали С вещами на вылет! через торрент бесплатно! Внесите свою лепту в развитие PiratBit!
    Комментировать посты могут только пользователи прошедшие не сложную регистрацию
    Показать сообщения:    

    С вещами на вылет! через торрент
    Скачать бесплатно С вещами на вылет!
    С вещами на вылет! скачать торрент
    С вещами на вылет! смотреть онлайн
    Cкачать фильм С вещами на вылет! бесплатно
    С вещами на вылет! скачать торрент в хорошем качестве
    С вещами на вылет! смотреть онлайн бесплатно в хорошем качестве


    Вы не можете начинать темы
    Вы не можете отвечать на сообщения
    Вы не можете редактировать свои сообщения
    Вы не можете удалять свои сообщения
    Вы не можете голосовать в опросах
    Вы не можете прикреплять файлы к сообщениям
    Вы можете скачивать файлы