Достать ножи: Стеклянная луковица

MVO

Добыча

Дубляж

Уэнсдэй

1 сезон

Тор

Дубляж

13 клиническая

1 сезон

Жестокая ночь

MVO

Одни из нас

1 сезон

Deluxe

pack

Рекомендуем

30

Пиратка

ВАЖНО

ВАЖНО

Ghostwire

Пиратка

jed

RePack

nioh2

RePack

RDR2

RePack

NEED FOR SPEED™ PAYBACK

RePack

скачать торрент

Кинопоиск HD

Острые козырьки 6 сезон

6 сезон

FAR CRY 6

RePack

скачать торрент

Лицензия

скачать торрент

MVO

1

1 сезон

скачать торрент

1 сезон

скачать торрент

Лицензия

  

Долина синих скал (Николай Красий) [1956, СССР, драма, SATRip от AVP Studio]

Долина синих скал через торрент pb.wtf

Размер: 745 MB | Добавлен: 6 лет 2 мес. назад | Торрент скачан:10 раз
Смотреть онлайн | Скачать | Поддержите нас   

01-12-2016 09:33 Долина синих скал Скачать торрент  

Долина синих скал
Страна: СССР
Производство: К/ст им. Довженко

Жанр: драма
Год выпуска: 1956
Продолжительность: 01:18:26

Перевод: Не требуется
Cубтитры: нет
Оригинальная аудиодорожка: русский

Режиссер: Николай Красий

В ролях:
Анатолий Вербицкий, Нелли Подгорная, Николай Пишванов, Павел Усовниченко, Фёдор Радчук, Стефания Пиль, Николай Блащук, Леонид Жуковский, Л. Журавлева, Георгий Фарманянц...
Полный список актёров

Описание:
Киноповесть.
О молодых геологах, ведущих разведку нефтяных месторождений.
Василий Рубан, окончивший геологический факультет, отправляется на работу в Закарпатье. Длительные поиски нефти в Карпатских горах не дают результата. Пожилой инженер уверяет Василия, что нефти здесь нет, но молодой геолог не сдается...

Источник: DVB
Качество видео: SATRip
Формат видео: AVI

Видео: 640x480 (4:3), 25 fps, XviD ~ 1188 kbps avg, 0.155 bit/pixel
Аудио: 48 kHz, MP3 2.0, 128 kbps

Раздача от:
Общее
Полное имя : Dolina.Sinih.skal.1956.SATRip-745_[New-team]_by_AVP_Studio.avi
Формат : AVI
Формат/Информация : Audio Video Interleave
Размер файла : 745 Мбайт
Продолжительность : 1 ч. 18 м.
Общий поток : 1329 Кбит/сек

Видео
Идентификатор : 0
Формат : MPEG-4 Visual
Профиль формата : Advanced [email protected]
Параметр BVOP формата : 1
Параметр QPel формата : Нет
Параметр GMC формата : Без точки перехода
Параметр матрицы формата : Выборочная
Идентификатор кодека : XVID
Идентификатор кодека/Подсказка : XviD
Продолжительность : 1 ч. 18 м.
Битрейт : 1188 Кбит/сек
Ширина : 640 пикселей
Высота : 480 пикселей
Соотношение сторон : 4:3
Частота кадров : 25,000 кадров/сек
Цветовое пространство : YUV
Субдискретизация насыщенности : 4:2:0
Битовая глубина : 8 бит
Тип развёртки : Прогрессивная
Метод сжатия : С потерями
Бит/(Пиксели*Кадры) : 0.155
Размер потока : 666 Мбайт (89%)
Библиотека кодирования : XviD 1.2.1 (UTC 2008-12-04)

Аудио
Идентификатор : 1
Формат : MPEG Audio
Версия формата : Version 1
Профиль формата : Layer 3
Идентификатор кодека : 55
Идентификатор кодека/Подсказка : MP3
Продолжительность : 1 ч. 18 м.
Вид битрейта : Постоянный
Битрейт : 128 Кбит/сек
Каналы : 2 канала
Частота : 48,0 КГц
Метод сжатия : С потерями
Размер потока : 71,8 Мбайт (10%)
Выравнивание : Соединение по промежуткам
Продолжительность промежутка : 24 мс. (0,60 видеокадр)



Скачать Долина синих скал через торрент http://s010.radikal.ru/i313/1612/ac/1d0c3f80647a.png Скачать, смотреть онлайн Долина синих скал бесплантно в хорошем качестве Описание:Киноповесть.О молодых геологах, ведущих разведку нефтяных месторождений.Василий Рубан, окончивший геологический факультет, ... 5 10 1
Торрент: Зарегистрирован [2016-12-01 09:33] · скачан: 10 раз
Статус: √ проверено
Размер: 745 MB
Как cкачать? Как скачать Долина синих скал через торрент | UTorrent

% Раздел Тема Автор DL S | L
Кино СССР [ 1.09 GB ] Долина синих скал | | SATRip-AVC от AVP Studio AVP Studio Скачать
1 | 0
Кино СССР [ 1.09 GB ] Долина синих скал | | SATRip от AVP Studio AVP Studio Скачать
1 | 0

28-11-2019 20:33  


Отключить вcю реклaмy на сайте, в т.ч. и в плеере онлайн просмотра!

    Дорогой пользователь! Огромная просьба, поблагодарите релизера, оцените раздачу и оставьте свои комментарий, если Вы скачали Долина синих скал через торрент бесплатно!!
    Комментировать посты могут только пользователи прошедшие не сложную регистрацию
    Показать сообщения:    


    Долина синих скал через торрент
    Скачать бесплатно Долина синих скал
    Долина синих скал скачать торрент
    Долина синих скал смотреть онлайн
    Cкачать фильм Долина синих скал бесплатно
    Долина синих скал скачать торрент в хорошем качестве
    Долина синих скал смотреть онлайн бесплатно в хорошем качестве
    Вы не можете начинать темы
    Вы не можете отвечать на сообщения
    Вы не можете редактировать свои сообщения
    Вы не можете удалять свои сообщения
    Вы не можете голосовать в опросах
    Вы не можете прикреплять файлы к сообщениям
    Вы можете скачивать файлы
    Долина синих скал [1956, СССР, драма, SATRip от AVP Studio] смотреть онлайн, скачать торрент picoco.icu