Ссылка на приватное зеркало нашего сайта всего за 1$. Внимание количество ограничено!!!

2 сезон

iTunes

1 сезон

1

2 сезон

2 сезон

iTunes

1 сезон

RePack

30

Новинка

ВАЖНО

ИГРА 18+

pack

RePack

MK11
pack

Забери бонус

RePack

jed

!!Акция!!

Alien_Rage

RePack

fifa19

RePack

Assassins Creed: Odyssey

RePack

NEED FOR SPEED™ PAYBACK

4 сезон

9 сезон

Бесстыжие 9 сезон

Все сериалы

все сериалы на PB.wtf

RePack

FAR CRY 5
  

Перевозчик / The Transporter (Кори Йюен) [2002 г., Боевик, приключения, детектив, BD Remux, Дубляж] pb.wtf

Перевозчик через торрент pb.wtf

Размер: 27.56 GB | Добавлен: 3 года 11 мес. назад | Торрент скачан:0 раз
Скачать  

01-12-2016 11:15 Перевозчик Скачать торрент  

Перевозчик / The Transporter
Год выпуска: 2002
Страна: США, Франция
Жанр: Боевик, приключения, детектив
Продолжительность: 01:32:32
Перевод: Дубляж+ профессиональный (многоголосый)+ авторский (Е.Рудой)+ авторский (А.Гаврилов)+ Оригинал
Субтитры: Русские, английские

Режиссер: Кори Йюен

В ролях: Джейсон Стэйтем, Даг Рэнд, Шу Ци, Мэтт Шульц, Рик Янг, Франсуа Берлеан, Тонио Десканвей, Венсан Немет, Жан-Мари Пэрис, Одри Хэмм, Лоран Жюмокур, Кристиан Газио

Описание: Когда-то Фрэнк Мартин служил в частях особого назначения, а сейчас обосновался на средиземноморском побережьи Франции, зарабатывая себе на жизнь перевозкой грузов — далеко не всегда безобидных. Выполняя секретные и порой опасные задания на своем BMW, Фрэнк придерживается строгих правил. Правило первое: никогда не нарушать условий сделки. Правило второе: никаких имен — Фрэнк не хочет знать, ни на кого работает, ни какой товар перевозит. Правило третье: никогда не заглядывать в багаж. Последний груз, похоже, ничем не отличается от всех прочих. Его поручил переправить американец по прозвищу "Уолл-стрит" (см. правило второе), но когда Фрэнк по дороге делает остановку, он замечает, что его багаж шевелится. Нарушив правило номер три, Фрэнк заглядывает внутрь и обнаруживает прекрасную женщину с кляпом во рту. Два других запрета, от которых зависят безопасность и жизнь Фрэнка, также скоро нарушаются. В результате "перевозчик" и его неожиданная попутчица вступают на опасный путь, на котором их ждут страшные тайны, смертельные ловушки и удивительное для Фрэнка открытие — правила, по которым он раньше жил, созданы для того, чтобы их нарушать...

Качество: BD Remux
Формат: BDAV
Видео кодек: AVC
Аудио кодек: AC3-DTS
Видео: MPEG-4 AVC, (1920x1080),33000 Кбит/с, 23.976 кадра/сек
Аудио#1: AC3, 6 ch,640 kbps (Rus) 48.0 KHz Дублированный
Аудио#2: AC3, 6 ch,384 kbps (Rus) 48.0 KHz профессиональный (многоголосый)
Аудио#3: AC3, 6 ch,640 kbps (Eng) 48.0 KHz Оригинал
Аудио#4: DTS, 6 ch,1509 kbps (Rus) 48.0 KHz авторский (Е.Рудой)
Аудио#5: DTS, 6 ch,755 kbps (Rus) 48.0 KHz авторский (А.Гаврилов)
скриншот   скриншот   скриншот  

Тип потока: Видео
Длительность: 01:32:32
Кодек: AVC
Кодек/описание: Advanced Video Codec
Кодек/профиль: High@L4.1
Кодек/ID: 27
Кодек/CABAC: Yes
Кодек/ReFrames: 2 frames
Размеры изображения: 1920 x 1080 (16:9)
Частота кадров: 23.976 fps
Размер потока: 23.9 GiB (87%)
Битрейт: 37.0 Mbps
Битрейт/тип: VBR
Цветовое пространство: YUV
Тип развёртки: Progressive
Колориметрия: 4:2:0
Глубина: 8 bits
:
Тип потока: Звук #1
Длительность: 01:32:32.576
Кодек: AC-3
Кодек/описание: Audio Coding 3
Кодек/ID: 129
Частота дискретизации: 48.0 KHz
Каналов: 6 channels
Битрейт: 640 Kbps
Битрейт/тип: Constant
Размер потока: 424 MiB (2%)
Глубина: 16 bits
Метод сжатия: Lossy
:
Тип потока: Звук #2
Длительность: 01:32:32.576
Кодек: AC-3
Кодек/описание: Audio Coding 3
Кодек/ID: 129
Частота дискретизации: 48.0 KHz
Каналов: 6 channels
Битрейт: 384 Kbps
Битрейт/тип: Constant
Размер потока: 254 MiB (1%)
Глубина: 16 bits
Метод сжатия: Lossy
:
Тип потока: Звук #3
Язык: English
Длительность: 01:32:32.546
Кодек: TrueHD / AC-3
Режим смешивания: Stream extension
Кодек/ID: 131
Частота дискретизации: 48.0 KHz
Каналов: 6 channels
Битрейт: 640 Kbps
Битрейт/тип: Variable / Constant
Размер потока: 424 MiB (2%)
Глубина: 16 bits
:
Тип потока: Звук #4
Язык: Russian
Длительность: 01:32:26.442
Кодек: DTS
Кодек/описание: Digital Theater Systems
Кодек/ID: 130
Частота дискретизации: 48.0 KHz
Каналов: 6 channels
Битрейт: 1 510 Kbps
Битрейт/тип: Constant
Размер потока: 998 MiB (4%)
Глубина: 24 bits
Метод сжатия: Lossy
:
Тип потока: Звук #5
Язык: Russian
Длительность: 01:32:26.347
Кодек: DTS
Кодек/описание: Digital Theater Systems
Кодек/ID: 130
Частота дискретизации: 48.0 KHz
Каналов: 6 channels
Битрейт: 755 Kbps
Битрейт/тип: Constant
Размер потока: 499 MiB (2%)
Глубина: 24 bits
Метод сжатия: Lossy
:
Тип потока: Субтитры #1
Язык: Russian
Формат: PGS
:
Тип потока: Субтитры #2
Язык: English
Формат: PGS
:
Тип потока: Субтитры #3
Язык: English
Формат: PGS

pb.wtf



Скачать Перевозчик через торрент http://pic1.kartinco.top/images/11/2q2bh.jpg Скачать фильм Перевозчик через торрент бесплантно в хорошем качестве Описание: Когда-то Фрэнк Мартин служил в частях особого назначения, а сейчас обосновался на средиземноморском побережьи Франции, ... 10 10 2
Торрент: Зарегистрирован [2016-12-01 11:15] · скачан: 0 раз
Статус: √ проверено
Размер: 27.56 GB
Как cкачать? Как скачать Перевозчик через торрент | qTorrent

% Раздел Тема Автор DL S | L
Фильмы [HD 720p, 1080p] (Хороший звук DUB, MVO) [ 4.71 GB ] Перевозчик / The Transporter [2002 BDRip-HEVC 1080p ] [UnCut Version] DUB [] bober100 Скачать
1 | 0
Фильмы 2015 [DVDrip, WEB-DLRip, HDrip] [ 2.18 GB ] Перевозчик: Наследие / The Transporter Refueled [2015 BDRip-AVC] [RUS Transfer] DUB potroks Скачать
1 | 0
Фильмы [HD 720p, 1080p] (Хороший звук DUB, MVO) [ 7.75 GB ] Перевозчик: Наследие / The Transporter Refueled [2015 BDRip 1080p - [ / BD CEE] Ворон Скачать
1 | 0
Фильмы (DVD фильмы) [ 5.29 GB ] Перевозчик: Наследие / The Transporter Refueled [2015 DVD9] R5 voovaz Скачать
1 | 0
Фильмы [HD 720p, 1080p] (Хороший звук DUB, MVO) [ 13.45 GB ] Перевозчик: Наследие / The Transporter Refueled [2015 BDRip 1080p] DUB Ворон Скачать
1 | 0
Фильмы 2015 [DVDrip, WEB-DLRip, HDrip] [ 1.46 GB ] Перевозчик: Наследие / The Transporter Refueled [2015 BDRip [] Twi7ter Скачать
1 | 0
Видео для КПК и Смартфонов [ 433 MB ] Перевозчик: Наследие / The Transporter Refueled [2015 HDRip / КПК / ] Ворон Скачать
1 | 0

28-11-2019 20:33  

Отключить всю рекламу на сайте

    Дорогой пользователь! Огромная просьба, поблагодарите релизера, оцените раздачу и оставьте свои комментарий, если Вы скачали Перевозчик через торрент бесплатно! Внесите свою лепту в развитие PiratBit!
    Комментировать посты могут только пользователи прошедшие не сложную регистрацию
    Показать сообщения:    

    Перевозчик через торрент
    Скачать бесплатно Перевозчик
    Перевозчик скачать торрент
    Перевозчик смотреть онлайн
    Cкачать фильм Перевозчик бесплатно
    Перевозчик скачать торрент в хорошем качестве
    Перевозчик смотреть онлайн бесплатно в хорошем качестве


    Вы не можете начинать темы
    Вы не можете отвечать на сообщения
    Вы не можете редактировать свои сообщения
    Вы не можете удалять свои сообщения
    Вы не можете голосовать в опросах
    Вы не можете прикреплять файлы к сообщениям
    Вы можете скачивать файлы