Ссылка на приватное зеркало всего за 1$. Внимание количество ограничено!!!

iTunes

iTunes

iTunes

1

iTunes

iTunes

iTunes

iTunes

iTunes

30
pack

$ от Little Big

ВАЖНО

!!Акция!!

Alien_RageХит недели

RePack

Resident Evil 21

ИГРА 18+

pack

RePack

jed

!!Акция!!

Alien_Rage

RePack

fifa19

RePack

Assassins Creed: Odyssey

RePack

NEED FOR SPEED™ PAYBACK

4 сезон

9 сезон

Бесстыжие 9 сезон

Все сериалы

все сериалы на PB.wtf

RePack

FAR CRY 5
  

Морган / Morgan (Люк Скотт) [2016, Ужасы, фантастика, триллер, драма, детектив, WEB-DL 1080p] [Dub] [Лицензия / iTunes] pb.wtf

Морган через торрент pb.wtf

Размер: 3.63 GB | Добавлен: 3 года 7 мес. назад | Торрент скачан:921 раз
Скачать  

01-12-2016 20:20 Морган Скачать торрент  

Морган / Morgan


Год выпуска: 2016
Выпущено: США, Scott Free Productions
Жанр: Ужасы, фантастика, триллер, драма, детектив
Продолжительность: 01:32:28
Перевод: Дублированный [Лицензия / iTunes]
Субтитры: Русские, английские, украинские

Режиссер: Люк Скотт

В ролях: Кейт Мара, Аня Тейлор-Джой, Роуз Лесли, Майкл Йар, Тоби Джонс, Крис Салливан, Бойд Холбрук, Винетт Робинсон, Мишель Йео, Брайан Кокс

Описание: Сотрудница по устранению аварий отправляется в отдаленный секретный филиал, где должна расследовать и оценить потери от ужасной катастрофы. На месте она узнает, что случившееся было вызвано, казалось бы, невинным «человеком», чье существование само по себе является опасной тайной.




Качество: WEB-DL 1080p
Формат: MKV
Видео: MPEG-4 AVC, 4547 Кбит/с, 1916x800, 23.976 fps
Аудио: 48.0 KHz, AC3, 6 ch, 384 Kbps [Rus]
Аудио: 48.0 KHz, AC3, 6 ch, 384 Kbps [Eng]
Аудио: 48.0 KHz, AAC, 2 ch, 160 Kbps [Ukr]
General
Unique ID : 248447723105284420613193755345929778479 (0xBAE94A7BFBA22C92A9B2DB697C6E352F)
Complete name : E:\Morgan.2016.1080p.WEB-DL.Rus.Ukr.2xEng.HDCLUB.mkv
Format : Matroska
Format version : Version 2
File size : 3.63 GiB
Duration : 1h 32mn
Overall bit rate : 5 624 Kbps
Movie name : Morgan (2016) - Release for HDCLUB
Encoded date : UTC 2016-12-01 19:20:18
Writing application : mkvmerge v3.4.0 ('Rapunzel') built on May 15 2010 09:38:20
Writing library : libebml v0.8.0 + libmatroska v0.9.0

Video
ID : 1
Format : AVC
Format/Info : Advanced Video Codec
Format profile : High@L4
Format settings, CABAC : Yes
Format settings, ReFrames : 5 frames
Codec ID : V_MPEG4/ISO/AVC
Duration : 1h 32mn
Width : 1 916 pixels
Height : 800 pixels
Display aspect ratio : 2.40:1
Frame rate mode : Constant
Frame rate : 23.976 fps
Color space : YUV
Chroma subsampling : 4:2:0
Bit depth : 8 bits
Scan type : Progressive
Title : Morgan (2016) - Release for HDCLUB
Language : English
Default : Yes
Forced : No
Color range : Limited
Color primaries : BT.709
Transfer characteristics : BT.709
Matrix coefficients : BT.709

Audio #1
ID : 2
Format : AC-3
Format/Info : Audio Coding 3
Mode extension : CM (complete main)
Format settings, Endianness : Big
Codec ID : A_AC3
Duration : 1h 32mn
Bit rate mode : Constant
Bit rate : 384 Kbps
Channel(s) : 6 channels
Channel positions : Front: L C R, Side: L R, LFE
Sampling rate : 48.0 KHz
Compression mode : Lossy
Stream size : 254 MiB (7%)
Title : AC3 5.1 @ 384 kbps - DUB, iTunes
Language : Russian
Default : Yes
Forced : No

Audio #2
ID : 3
Format : AAC
Format/Info : Advanced Audio Codec
Format profile : LC
Codec ID : A_AAC
Duration : 1h 32mn
Channel(s) : 2 channels
Channel positions : Front: L R
Sampling rate : 48.0 KHz
Compression mode : Lossy
Title : AAC 2.0 @ 160 kbps - DUB, iTunes
Language : Ukrainian
Default : No
Forced : No

Audio #3
ID : 4
Format : AC-3
Format/Info : Audio Coding 3
Mode extension : CM (complete main)
Format settings, Endianness : Big
Codec ID : A_AC3
Duration : 1h 32mn
Bit rate mode : Constant
Bit rate : 384 Kbps
Channel(s) : 6 channels
Channel positions : Front: L C R, Side: L R, LFE
Sampling rate : 48.0 KHz
Compression mode : Lossy
Stream size : 254 MiB (7%)
Title : AC3 5.1 @ 384 kbps
Language : English
Default : No
Forced : No

Audio #4
ID : 5
Format : AAC
Format/Info : Advanced Audio Codec
Format profile : LC
Codec ID : A_AAC
Duration : 1h 32mn
Channel(s) : 2 channels
Channel positions : Front: L R
Sampling rate : 48.0 KHz
Compression mode : Lossy
Title : AAC 2.0 @ 160 kbps - Descriptive
Language : English
Default : No
Forced : No

Text #1
ID : 6
Format : UTF-8
Codec ID : S_TEXT/UTF8
Codec ID/Info : UTF-8 Plain Text
Title : Forced, iTunes
Language : Russian
Default : Yes
Forced : No

Text #2
ID : 7
Format : UTF-8
Codec ID : S_TEXT/UTF8
Codec ID/Info : UTF-8 Plain Text
Title : iTunes
Language : Russian
Default : No
Forced : No

Text #3
ID : 8
Format : UTF-8
Codec ID : S_TEXT/UTF8
Codec ID/Info : UTF-8 Plain Text
Title : Forced, iTunes
Language : Ukrainian
Default : No
Forced : No

Text #4
ID : 9
Format : UTF-8
Codec ID : S_TEXT/UTF8
Codec ID/Info : UTF-8 Plain Text
Title : iTunes
Language : Ukrainian
Default : No
Forced : No

Text #5
ID : 10
Format : UTF-8
Codec ID : S_TEXT/UTF8
Codec ID/Info : UTF-8 Plain Text
Title : Forced, iTunes
Language : English
Default : No
Forced : No

Text #6
ID : 11
Format : UTF-8
Codec ID : S_TEXT/UTF8
Codec ID/Info : UTF-8 Plain Text
Title : iTunes
Language : English
Default : No
Forced : No

Menu
00:00:00.000 : en:1
00:03:42.806 : en:2
00:07:22.108 : en:3
00:11:41.492 : en:4
00:16:04.046 : en:5
00:20:29.978 : en:6
00:25:36.034 : en:7
00:28:45.223 : en:8
00:34:19.974 : en:9
00:37:17.568 : en:10
00:40:45.817 : en:11
00:43:46.831 : en:12
00:48:13.931 : en:13
00:51:28.458 : en:14
00:54:45.696 : en:15
00:59:50.751 : en:16
01:03:44.109 : en:17
01:08:01.324 : en:18
01:11:43.462 : en:19
01:13:46.126 : en:20
01:17:03.406 : en:21
01:20:01.375 : en:22
01:22:32.234 : en:23
01:25:10.642 : en:24
pb.wtf



Скачать Морган через торрент http://s018.radikal.ru/i521/1609/dc/5123d4121beb.jpg Скачать фильм Морган через торрент бесплантно в хорошем качестве Описание: Сотрудница по устранению аварий отправляется в отдаленный секретный филиал, где должна расследовать и оценить потери от ужасной ... 9.5 10 25
Info! Золотая раздача, скачанное не засчитывается.
Торрент: Зарегистрирован [2016-12-01 20:20] · скачан: 921 раз
Статус: √ проверено
Размер: 3.63 GB
Как cкачать? Как скачать Морган через торрент | qTorrent

% Раздел Тема Автор DL S | L
Зарубежные сериалы [ 5.33 GB ] Хорошее место / В лучшем мире / The Good Place / Сезон 1 / Серии 1-13 из 13 [2016 WEB-DLRip-AVC] MVO [BaibaKo] GEKADOL Скачать
1 | 1
Фильмы [HD 720p, 1080p] (Хороший звук DUB, MVO) [ 3.69 GB ] Морган / Morgan [2016 BDRip 720p] Dub potroks Скачать
1 | 0
National Geographic [ 6.97 GB ] National Geographic: История о нас с Морганом Фрименом / The Story of Us with Morgan Freem / Серии: 1-6 из 6 [2017 документальный DVB] VO bober100 Скачать
1 | 0
Фильмы (Blu-ray, BD-Remux, HDDVD) [ 38.31 GB ] Морган / Morgan [2016 Blu-ray EUR 1080p] DUB sheker187 Скачать
1 | 0
Ultra HD (UHD: 2K, 4K, 8K) — видео сверхвысокой чёткости [ 26.18 GB ] Морган / Morgan [2016 UHD BDRemux 2160p] DUB [] bober100 Скачать
1 | 0
Зарубежные сериалы [ 26.51 GB ] Секретные материалы / The X-Files / Сезон: 11 / Серии 1-10 из 10 [2018 WEBRip 1080p WEB-DL 1080p] MVO [BaibaKo] GEKADOL Скачать
1 | 1
Фильмы [HD 720p, 1080p] (Хороший звук DUB, MVO) [ 7.35 GB ] Морган / Morgan [2016 BDRip 1080p] DUB [] bober100 Скачать
1 | 0

28-11-2019 20:33  

Отключить всю рекламу на сайте

02-12-2016 17:59 Морган Скачать торрент  

Ужасы, фантастика, триллер, драма, детектив, мдеpb.wtf



03-12-2016 15:04 Морган Скачать торрент  

спасибо)) глянем))pb.wtf



20-12-2016 07:54 Морган Скачать торрент  

Спс качаю и встаю на раздачу.pb.wtf



    Дорогой пользователь! Огромная просьба, поблагодарите релизера, оцените раздачу и оставьте свои комментарий, если Вы скачали Морган через торрент бесплатно! Внесите свою лепту в развитие PiratBit!
    Комментировать посты могут только пользователи прошедшие не сложную регистрацию
    Показать сообщения:    

    Морган через торрент
    Скачать бесплатно Морган
    Морган скачать торрент
    Морган смотреть онлайн
    Cкачать фильм Морган бесплатно
    Морган скачать торрент в хорошем качестве
    Морган смотреть онлайн бесплатно в хорошем качестве


    Вы не можете начинать темы
    Вы не можете отвечать на сообщения
    Вы не можете редактировать свои сообщения
    Вы не можете удалять свои сообщения
    Вы не можете голосовать в опросах
    Вы не можете прикреплять файлы к сообщениям
    Вы можете скачивать файлы