Ссылка на приватное зеркало нашего сайта всего за 1$. Внимание количество ограничено!!!

2 сезон

iTunes

1 сезон

1

iTunes

iTunes

iTunes

1 сезон

RePack

30

ИГРА 18+

pack

ВАЖНО

!!Акция!!

Alien_RageХит недели

RePack

MK11
pack

Забери бонус

RePack

jed

!!Акция!!

Alien_Rage

RePack

fifa19

RePack

Assassins Creed: Odyssey

RePack

NEED FOR SPEED™ PAYBACK

4 сезон

9 сезон

Бесстыжие 9 сезон

Все сериалы

все сериалы на PB.wtf

RePack

FAR CRY 5
  

Девушка, которая слишком много знала / La ragazza che sapeva troppo (Марио Бава) [1963, триллер, детектив, BDRip 1080p by msltel] 2 x MVO pb.wtf

Девушка, которая слишком много знала через торрент pb.wtf

Размер: 10.3 GB | Добавлен: 3 года 10 мес. назад | Торрент скачан:4 раза
Скачать  

02-12-2016 07:09 Девушка, которая слишком много знала Скачать торрент  

Название: Девушка, которая слишком много знала
Оригинальное название: La ragazza che sapeva troppo
Год выпуска: 1963
Страна: Италия
Жанр: триллер, детектив
Продолжительность: 01:28:45
Перевод: профессиональный многоголосый

Режиссёр: Марио Бава

В ролях: Летиция Роман, Джон Сэксон, Валентина Кортезе, Титти Томайно, Луиджи Бонос, Мило Куэсада, Роберт Бьюкэнэн, Марта Мелокко, Густаво Де Нардо, Люсия Модуньо, Джон Бенеди, Франко Моричи, Вирджиния Доро, Данте ДиПаоло, Джим Долен, Адриана Фаччетти, Дэфидд Авар, Тиберио Мурджа, Пегги Натан, Франко Рессель, Джон Стэйси

Описание: Американская студентка Нора, страстная любительница детективов, отправляется на каникулы в Рим и сразу же попадает в водоворот неприятностей: в аэропорту ей подсовывают контрабанду; тетушка, у которой она должна гостить, умирает; на улице на неё нападают; и, вдобавок ко всему, она видит, как мужчина убивает женщину ножом. Полиция принимает рассказ Норы за галлюцинацию, но вскоре она узнаёт, что на этом месте и именно так действительно была убита девушка… десять лет назад...



Качество: BDRip 1080p Сравнение с исходником
Формат: MKV
Видео: MPEG-4 AVC, 15.9 Mбит/с, 1800x1080, 23,976 кадра/с
Аудио 1: русский, AC3, 192 kbps, 2 ch, 48 kHz [профессиональный многоголосый, Спб, 5 канал]
Аудио 2: русский, AC3, 192 kbps, 2 ch, 48 kHz [профессиональный многоголосый, Film Prestige]
Аудио 3: итальянский, AC3, 384 kbps, 2 ch, 48 kHz [оригинал]
Субтитры: английские
Имеются неименованные главы/чаптеры.
Общее
Уникальный идентификатор : 206034258143610818986838555670686198616 (0x9B00C1362BDCA0BBB82BE4AC580BEB58)
Полное имя : D:\Video\Девушка, которая слишком много знала.1963.BDRip.1080p by msltel.mkv
Формат : Matroska
Версия формата : Version 4 / Version 2
Размер файла : 10,3 Гбайт
Продолжительность : 1 ч. 28 м.
Общий поток : 16,6 Мбит/сек
Название фильма : Rip by msltel
Дата кодирования : UTC 2016-12-01 13:25:09
Программа кодирования : mkvmerge v8.2.0 ('World of Adventure') 64bit
Библиотека кодирования : libebml v1.3.1 + libmatroska v1.4.2

Видео
Идентификатор : 1
Формат : AVC
Формат/Информация : Advanced Video Codec
Профиль формата : High@L4.1
Параметр CABAC формата : Да
Параметр ReFrames формата : 4 кадра
Идентификатор кодека : V_MPEG4/ISO/AVC
Продолжительность : 1 ч. 28 м.
Битрейт : 15,9 Мбит/сек
Ширина : 1800 пикселей
Высота : 1080 пикселей
Соотношение сторон : 5:3
Режим частоты кадров : Постоянный
Частота кадров : 23,976 (24000/1001) кадра/сек
Цветовое пространство : YUV
Субдискретизация насыщенности : 4:2:0
Битовая глубина : 8 бит
Тип развёртки : Прогрессивная
Бит/(Пиксели*Кадры) : 0.340
Размер потока : 9,83 Гбайт (95%)
Библиотека кодирования : x264 core 146 r2538 121396c
Настройки программы : cabac=1 / ref=4 / deblock=1:-3:-3 / analyse=0x3:0x113 / me=umh / subme=9 / psy=1 / psy_rd=1.00:0.15 / mixed_ref=1 / me_range=32 / chroma_me=1 / trellis=1 / 8x8dct=1 / cqm=0 / deadzone=21,11 / fast_pskip=0 / chroma_qp_offset=-3 / threads=6 / lookahead_threads=1 / sliced_threads=0 / nr=0 / decimate=1 / interlaced=0 / bluray_compat=0 / constrained_intra=0 / bframes=16 / b_pyramid=2 / b_adapt=2 / b_bias=0 / direct=1 / weightb=0 / open_gop=0 / weightp=2 / keyint=230 / keyint_min=23 / scenecut=40 / intra_refresh=0 / rc_lookahead=40 / rc=crf / mbtree=0 / crf=21.0 / qcomp=0.60 / qpmin=0 / qpmax=69 / qpstep=4 / vbv_maxrate=50000 / vbv_bufsize=62500 / crf_max=0.0 / nal_hrd=none / filler=0 / ip_ratio=1.40 / pb_ratio=1.30 / aq=1:1.00
Язык : Italian
Default : Да
Forced : Нет

Аудио #1
Идентификатор : 2
Формат : AC-3
Формат/Информация : Audio Coding 3
Расширение режима : CM (complete main)
Параметр Endianness формата : Big
Идентификатор кодека : A_AC3
Продолжительность : 1 ч. 25 м.
Вид битрейта : Постоянный
Битрейт : 192 Кбит/сек
Каналы : 2 канала
Расположение каналов : Front: L R
Частота : 48,0 КГц
Частота кадров : 31,250 кадров/сек (1536 spf)
Метод сжатия : С потерями
Размер потока : 118 Мбайт (1%)
Заголовок : MVO (Спб, 5 канал)
Язык : Russian
Default : Да
Forced : Нет

Аудио #2
Идентификатор : 3
Формат : AC-3
Формат/Информация : Audio Coding 3
Расширение режима : CM (complete main)
Параметр Endianness формата : Big
Идентификатор кодека : A_AC3
Продолжительность : 1 ч. 25 м.
Вид битрейта : Постоянный
Битрейт : 192 Кбит/сек
Каналы : 2 канала
Расположение каналов : Front: L R
Частота : 48,0 КГц
Частота кадров : 31,250 кадров/сек (1536 spf)
Метод сжатия : С потерями
Размер потока : 118 Мбайт (1%)
Заголовок : MVO (Film Prestige)
Язык : Russian
Default : Нет
Forced : Нет

Аудио #3
Идентификатор : 4
Формат : DTS
Формат/Информация : Digital Theater Systems
Режим : 16
Параметр Endianness формата : Big
Идентификатор кодека : A_DTS
Продолжительность : 1 ч. 28 м.
Вид битрейта : Постоянный
Битрейт : 384 Кбит/сек
Каналы : 2 канала
Расположение каналов : Front: L R
Частота : 48,0 КГц
Частота кадров : 93,750 кадра/сек (512 spf)
Битовая глубина : 24 бит
Метод сжатия : С потерями
Размер потока : 244 Мбайт (2%)
Заголовок : original
Язык : Italian
Default : Нет
Forced : Нет

Текст
Идентификатор : 5
Формат : UTF-8
Идентификатор кодека : S_TEXT/UTF8
Идентификатор кодека/Информация : UTF-8 Plain Text
Продолжительность : 1 ч. 25 м.
Битрейт : 51 бит/сек
Count of elements : 912
Размер потока : 32,4 Кбайт (0%)
Заголовок : английские
Язык : English
Default : Нет
Forced : Нет

Меню
00:00:00.000 : en:00:00:00.000
00:07:01.880 : en:00:07:01.880
00:13:23.553 : en:00:13:23.553
00:21:07.475 : en:00:21:07.475
00:27:22.850 : en:00:27:22.850
00:33:23.126 : en:00:33:23.126
00:40:52.784 : en:00:40:52.784
00:49:18.164 : en:00:49:18.164
00:54:39.485 : en:00:54:39.485
01:03:51.494 : en:01:03:51.494
01:09:18.946 : en:01:09:18.946
01:15:51.672 : en:01:15:51.672

ВКОНТАКТЕpb.wtf



Скачать Девушка, которая слишком много знала через торрент http://s017.radikal.ru/i424/1611/2b/09cb64a5aa66.jpg Скачать фильм Девушка, которая слишком много знала через торрент бесплантно в хорошем качестве Описание: Американская студентка Нора, страстная любительница детективов, отправляется на каникулы в Рим и сразу же попадает в водоворот ... 10 10 1
Info! Золотая раздача, скачанное не засчитывается.
Торрент: Зарегистрирован [2016-12-02 07:09] · скачан: 4 раз
Статус: √ проверено
Размер: 10.3 GB
Как cкачать? Как скачать Девушка, которая слишком много знала через торрент | qTorrent

% Раздел Тема Автор DL S | L
Фильмы [HD 720p, 1080p] (Хороший звук DUB, MVO) [ 4.18 GB ] Девушка которая слишком много знала / La ragazza che sapeva troppo [1963 BDRip 720p by msltel] 2 x MVO msltel Скачать
1 | 0

28-11-2019 20:33  

Отключить всю рекламу на сайте

    Дорогой пользователь! Огромная просьба, поблагодарите релизера, оцените раздачу и оставьте свои комментарий, если Вы скачали Девушка, которая слишком много знала через торрент бесплатно! Внесите свою лепту в развитие PiratBit!
    Комментировать посты могут только пользователи прошедшие не сложную регистрацию
    Показать сообщения:    

    Девушка, которая слишком много знала через торрент
    Скачать бесплатно Девушка, которая слишком много знала
    Девушка, которая слишком много знала скачать торрент
    Девушка, которая слишком много знала смотреть онлайн
    Cкачать фильм Девушка, которая слишком много знала бесплатно
    Девушка, которая слишком много знала скачать торрент в хорошем качестве
    Девушка, которая слишком много знала смотреть онлайн бесплатно в хорошем качестве


    Вы не можете начинать темы
    Вы не можете отвечать на сообщения
    Вы не можете редактировать свои сообщения
    Вы не можете удалять свои сообщения
    Вы не можете голосовать в опросах
    Вы не можете прикреплять файлы к сообщениям
    Вы можете скачивать файлы