Ссылка на приватное зеркало нашего сайта всего за 1$. Внимание количество ограничено!!!

2 сезон

iTunes

1 сезон

1

iTunes

iTunes

iTunes

1 сезон

RePack

30

ИГРА 18+

pack

ВАЖНО

!!Акция!!

Alien_RageХит недели

RePack

MK11
pack

Забери бонус

RePack

jed

!!Акция!!

Alien_Rage

RePack

fifa19

RePack

Assassins Creed: Odyssey

RePack

NEED FOR SPEED™ PAYBACK

4 сезон

9 сезон

Бесстыжие 9 сезон

Все сериалы

все сериалы на PB.wtf

RePack

FAR CRY 5
  

Хозяин морей: На краю Земли / Master and Commander: The Far Side of the World (Питер Уир / Peter Weir) [2003, боевик, драма, приключения, BDRip 720p от potroks] D, P, A pb.wtf

Хозяин морей: На краю Земли через торрент pb.wtf

Размер: 7.76 GB | Добавлен: 3 года 10 мес. назад | Торрент скачан:445 раз
Скачать  

02-12-2016 07:40 Хозяин морей: На краю Земли Скачать торрент  

Хозяин морей: На краю Земли / Master and Commander: The Far Side of the World

Год выпуска: 2003
Страна: США / 20th Century Fox Film Corporation, Miramax Films, Universal Pictures, Samuel Goldwyn Films LLC
Жанр: боевик, драма, приключения, военный, история
Продолжительность: 02:18:20
Перевод: Дубляж [Blu-ray CEE], профессиональный многоголосый, авторский (одноголосый)
Субтитры: русские (полные + форс.), английские (Full + SDH-Colored)
Навигация по главам: есть
Режиссер: Питер Уир / Peter Weir
В ролях:

Рассел Кроу (Capt. Jack Aubrey), Пол Беттани (Dr. Stephen Maturin, Surgeon), Джеймс Д’Арси (1st Lt. Tom Pullings), Эдвард Вудалл (2nd Lt. William Mowett), Крис Ларкин (Capt. Howard, Royal Marines), Макс Пиркис (Blakeney, Midshipman), Джек Рэндалл (Boyle, Midshipman), Макс Бениц (Calamy, Midshipman), Ли Инглби (Hollom, Midshipman), Ричард Пейтс (Williamson, Midshipman), Роберт Пью (Mr. Allen, Master), Ричард МакКейб (Mr. Higgins, Surgeon's Mate)
Описание: Действие фильма разворачивается во время наполеоновских войн. Военный парусник Ее Величества «Сюрприз», бороздящий просторы Атлантики, был неожиданно атакован огромным неизвестным кораблем, появившимся из тумана. Благодаря смелости и находчивости команды «Сюрпризу» удается уйти от смерти. Несмотря на тяжелые повреждения и потери, капитан Джек Обри по прозвищу Счастливчик принимает решение преследовать врага и устремляется в погоню, которая уведет его на край света. На кону репутация Джека, его жизнь и жизнь его команды...

Качество: BDRip 720p
Формат: MKV
Видео: AVC, 1280x534 (2.40:1), 5341 kbps, 23,976 fps, 0,326 bpp
Аудио №1: DTS / 5.1 / 48 kHz / 755 kbps / 24 bit | DUB - Blu-ray CEE
Аудио №2: AC3 / 5.1 / 48 kHz / 640 kbps / 16 bit | MVO - Супербит
Аудио №3: AC3 / 5.1 / 48 kHz / 640 kbps / 16 bit | AVO - А.Гаврилов
Аудио №4: AC3 / 5.1 / 48 kHz / 640 kbps / 16 bit | ENG
General
Unique ID : 183250584891660687352439654215021766088 (0x89DCC7647A887C66B1C58769034025C8)
Complete name : D:\Hozyain.Morey.Na.Krayu.Zemli.2003.3xRus.Eng.BDRip.720p.-HELLYWOOD.mkv
Format : Matroska
Format version : Version 4 / Version 2
File size : 7.76 GiB
Duration : 2 h 18 min
Overall bit rate : 8 029 kb/s
Movie name : Master and Commander: The Far Side of the World (2003)
Encoded date : UTC 2016-11-28 09:08:05
Writing application : mkvmerge v5.9.0 ('On The Loose') built on Dec 15 2012 16:39:58
Writing library : libebml v1.3.0 + libmatroska v1.4.0

Video
ID : 1
Format : AVC
Format/Info : Advanced Video Codec
Format profile : High@L4.1
Format settings, CABAC : Yes
Format settings, ReFrames : 11 frames
Codec ID : V_MPEG4/ISO/AVC
Duration : 2 h 18 min
Bit rate : 5 341 kb/s
Width : 1 280 pixels
Height : 534 pixels
Display aspect ratio : 2.40:1
Frame rate mode : Constant
Frame rate : 23.976 FPS
Color space : YUV
Chroma subsampling : 4:2:0
Bit depth : 8 bits
Scan type : Progressive
Bits/(Pixel*Frame) : 0.326
Stream size : 5.01 GiB (65%)
Title : potroks
Writing library : x264 core 146 r2538 121396c
Encoding settings : cabac=1 / ref=11 / deblock=1:-3:-3 / analyse=0x3:0x113 / me=umh / subme=11 / psy=1 / psy_rd=0.94:0.00 / mixed_ref=1 / me_range=48 / chroma_me=1 / trellis=2 / 8x8dct=1 / cqm=0 / deadzone=21,11 / fast_pskip=0 / chroma_qp_offset=-2 / threads=9 / lookahead_threads=2 / sliced_threads=0 / nr=0 / decimate=0 / interlaced=0 / bluray_compat=0 / constrained_intra=0 / bframes=12 / b_pyramid=2 / b_adapt=2 / b_bias=0 / direct=3 / weightb=1 / open_gop=0 / weightp=2 / keyint=240 / keyint_min=23 / scenecut=40 / intra_refresh=0 / rc_lookahead=60 / rc=2pass / mbtree=0 / bitrate=5341 / ratetol=1.0 / qcomp=0.70 / qpmin=0 / qpmax=69 / qpstep=4 / cplxblur=20.0 / qblur=0.5 / vbv_maxrate=14000 / vbv_bufsize=14000 / nal_hrd=none / filler=0 / ip_ratio=1.40 / pb_ratio=1.30 / aq=1:0.80
Language : English
Default : Yes
Forced : No

Audio #1
ID : 2
Format : DTS
Format/Info : Digital Theater Systems
Mode : 16
Format settings, Endianness : Big
Codec ID : A_DTS
Duration : 2 h 18 min
Bit rate mode : Constant
Bit rate : 768 kb/s
Channel(s) : 6 channels
Channel positions : Front: L C R, Side: L R, LFE
Sampling rate : 48.0 kHz
Frame rate : 93.750 FPS (512 spf)
Bit depth : 24 bits
Compression mode : Lossy
Stream size : 760 MiB (10%)
Title : Dub | DTS 5.1 @ 768 kbps - Blu-ray CEE
Language : Russian
Default : Yes
Forced : No

Audio #2
ID : 3
Format : AC-3
Format/Info : Audio Coding 3
Mode extension : CM (complete main)
Format settings, Endianness : Big
Codec ID : A_AC3
Duration : 2 h 18 min
Bit rate mode : Constant
Bit rate : 640 kb/s
Channel(s) : 6 channels
Channel positions : Front: L C R, Side: L R, LFE
Sampling rate : 48.0 kHz
Frame rate : 31.250 FPS (1536 spf)
Compression mode : Lossy
Stream size : 633 MiB (8%)
Title : MVO | DD 5.1 @ 640 kbps - Superbit
Language : Russian
Default : No
Forced : No

Audio #3
ID : 4
Format : AC-3
Format/Info : Audio Coding 3
Mode extension : CM (complete main)
Format settings, Endianness : Big
Codec ID : A_AC3
Duration : 2 h 18 min
Bit rate mode : Constant
Bit rate : 640 kb/s
Channel(s) : 6 channels
Channel positions : Front: L C R, Side: L R, LFE
Sampling rate : 48.0 kHz
Frame rate : 31.250 FPS (1536 spf)
Compression mode : Lossy
Stream size : 633 MiB (8%)
Title : AVO | DD 5.1 @ 640 kbps - A.Gavrilov
Language : Russian
Default : No
Forced : No

Audio #4
ID : 5
Format : AC-3
Format/Info : Audio Coding 3
Mode extension : CM (complete main)
Format settings, Endianness : Big
Codec ID : A_AC3
Duration : 2 h 18 min
Bit rate mode : Constant
Bit rate : 640 kb/s
Channel(s) : 6 channels
Channel positions : Front: L C R, Side: L R, LFE
Sampling rate : 48.0 kHz
Frame rate : 31.250 FPS (1536 spf)
Compression mode : Lossy
Stream size : 633 MiB (8%)
Title : Original | DD 5.1 @ 640 kbps
Language : English
Default : No
Forced : No

Text #1
ID : 6
Format : UTF-8
Codec ID : S_TEXT/UTF8
Codec ID/Info : UTF-8 Plain Text
Title : Forced
Language : Russian
Default : Yes
Forced : No

Text #2
ID : 7
Format : UTF-8
Codec ID : S_TEXT/UTF8
Codec ID/Info : UTF-8 Plain Text
Title : Blu-ray
Language : Russian
Default : No
Forced : No

Text #3
ID : 8
Format : UTF-8
Codec ID : S_TEXT/UTF8
Codec ID/Info : UTF-8 Plain Text
Title : Full
Language : English
Default : No
Forced : No

Text #4
ID : 9
Format : UTF-8
Codec ID : S_TEXT/UTF8
Codec ID/Info : UTF-8 Plain Text
Title : SDH-Colored
Language : English
Default : No
Forced : No

Menu
00:00:00.000 : en:(01)00:00:00:000
00:02:02.122 : en:(02)00:02:02:122
00:03:58.071 : en:(03)00:03:58:071
00:08:19.249 : en:(04)00:08:19:249
00:12:40.843 : en:(05)00:12:40:843
00:15:17.917 : en:(06)00:15:17:917
00:18:14.051 : en:(07)00:18:14:051
00:20:23.722 : en:(08)00:20:23:722
00:26:24.625 : en:(09)00:26:24:625
00:28:05.684 : en:(10)00:28:05:684
00:31:35.143 : en:(11)00:31:35:143
00:36:57.340 : en:(12)00:36:57:340
00:39:52.724 : en:(13)00:39:52:724
00:45:51.999 : en:(14)00:45:51:999
00:49:34.680 : en:(15)00:49:34:680
00:54:40.986 : en:(16)00:54:40:986
00:58:16.576 : en:(17)00:58:16:576
01:02:39.756 : en:(18)01:02:39:756
01:04:39.084 : en:(19)01:04:39:084
01:06:23.313 : en:(20)01:06:23:313
01:09:17.528 : en:(21)01:09:17:528
01:11:56.062 : en:(22)01:11:56:062
01:13:57.391 : en:(23)01:13:57:391
01:19:11.872 : en:(24)01:19:11:872
01:26:16.213 : en:(25)01:26:16:213
01:30:09.237 : en:(26)01:30:09:237
01:33:31.022 : en:(27)01:33:31:022
01:38:03.252 : en:(28)01:38:03:252
01:40:22.892 : en:(29)01:40:22:892
01:44:34.768 : en:(30)01:44:34:768
01:48:15.072 : en:(31)01:48:15:072
01:57:18.114 : en:(32)01:57:18:114
01:59:15.148 : en:(33)01:59:15:148
02:03:40.997 : en:(34)02:03:40:997
02:05:28.563 : en:(35)02:05:28:563
02:08:43.132 : en:(36)02:08:43:132
pb.wtf



Скачать Хозяин морей: На краю Земли через торрент http://i83.fastpic.ru/big/2016/1202/e1/5e652aafc7cd268470122e8603e0c7e1.png Скачать фильм Хозяин морей: На краю Земли через торрент бесплантно в хорошем качестве Описание: Действие фильма разворачивается во время наполеоновских войн. Военный парусник Ее Величества «Сюрприз», бороздящий просторы ... 9.4 10 20
Info! Золотая раздача, скачанное не засчитывается.
Торрент: Зарегистрирован [2016-12-02 07:40] · скачан: 445 раз
Статус: √ проверено
Размер: 7.76 GB
Как cкачать? Как скачать Хозяин морей: На краю Земли через торрент | qTorrent

28-11-2019 20:33  

Отключить всю рекламу на сайте

    Дорогой пользователь! Огромная просьба, поблагодарите релизера, оцените раздачу и оставьте свои комментарий, если Вы скачали Хозяин морей: На краю Земли через торрент бесплатно! Внесите свою лепту в развитие PiratBit!
    Комментировать посты могут только пользователи прошедшие не сложную регистрацию
    Показать сообщения:    

    Хозяин морей: На краю Земли через торрент
    Скачать бесплатно Хозяин морей: На краю Земли
    Хозяин морей: На краю Земли скачать торрент
    Хозяин морей: На краю Земли смотреть онлайн
    Cкачать фильм Хозяин морей: На краю Земли бесплатно
    Хозяин морей: На краю Земли скачать торрент в хорошем качестве
    Хозяин морей: На краю Земли смотреть онлайн бесплатно в хорошем качестве


    Вы не можете начинать темы
    Вы не можете отвечать на сообщения
    Вы не можете редактировать свои сообщения
    Вы не можете удалять свои сообщения
    Вы не можете голосовать в опросах
    Вы не можете прикреплять файлы к сообщениям
    Вы можете скачивать файлы