новый адрес
Ссылка на приватное зеркало всего за 1$. Внимание количество ограничено!!!

iTunes

1+1

iTunes

мы

iTunes

1

iTunes

Чернобыль

iTunes

Ральф против интернета

Лицензия

ПШазам

Лицензия

Оно 2

Лицензия

30
pack

Вам бонус

ВАЖНО

!!Акция!!

Alien_RageХит недели

RePack

Resident Evil 21

ИГРА 18+

pack

RePack

jed

!!Акция!!

Alien_Rage

RePack

fifa19

RePack

Assassins Creed: Odyssey

RePack

NEED FOR SPEED™ PAYBACK

3 сезон

9 сезон

Бесстыжие 9 сезон

Все сериалы

все сериалы на PB.wtf

RePack

FAR CRY 5
Ребята, катастрофически не хватает 1900р. для оплаты серверов за Октябрь (всвязи с блокировками трафик упал в 3 раза), 1-2р., выручайте.
  

Дорога правды (Ян Фрид) [1956, СССР, драма, SATRip от AVP Studio] pb.wtf

Дорога правды через торрент pb.wtf

Размер: 1.09 GB | Добавлен: 2 года 11 мес. назад | Торрент скачан:20 раз
Скачать  

02-12-2016 09:38 Дорога правды Скачать торрент  

Дорога правды
Страна: СССР
Производство: Ленфильм

Жанр: драма
Год выпуска: 1956
Продолжительность: 01:25:30

Перевод: Не требуется
Cубтитры: нет
Оригинальная аудиодорожка: русский

Режиссер: Ян Фрид

В ролях:
Тамара Макарова, Александр Борисов, Олег Жаков, Нина Зорская, Вера Пашенная, Константин Скоробогатов, Алла Ларионова, Константин Адашевский, Вера Кузнецова, Людмила Гурченко, Юрий Перов, Нина Дробышева, Владимир Костин...
Полный список актёров

Описание:
Киноповесть.
Оптимистическая драма о рядовой московской труженице, которая благодаря своей принципиальности, уму и справедливости завоевала всеобщее доверие и была избрана народным судьей.

Источник: DVB
Качество видео: SATRip
Формат видео: AVI

Видео: 672x496 (4:3), 25 fps, XviD ~ 1624 kbps avg, 0.195 bit/pixel
Аудио: 48 kHz, Dolby Digital AC3 2.0, 192 kbps

Раздача от:
Общее
Полное имя : Doroga.pravdy.1956.SATRip_[New-team]_by_AVP_Studio.avi
Формат : AVI
Формат/Информация : Audio Video Interleave
Размер файла : 1,09 Гбайт
Продолжительность : 1 ч. 25 м.
Общий поток : 1826 Кбит/сек
Программа кодирования : VirtualDubMod 1.5.10.3 | www.virtualdub-fr.org || (build 2550/release)
Библиотека кодирования : VirtualDubMod build 2550/release

Видео
Идентификатор : 0
Формат : MPEG-4 Visual
Профиль формата : Advanced Simple@L5
Параметр BVOP формата : 1
Параметр QPel формата : Нет
Параметр GMC формата : Без точки перехода
Параметр матрицы формата : Выборочная
Идентификатор кодека : XVID
Идентификатор кодека/Подсказка : XviD
Продолжительность : 1 ч. 25 м.
Битрейт : 1624 Кбит/сек
Ширина : 672 пикселя
Высота : 496 пикселей
Соотношение сторон : 4:3
Частота кадров : 25,000 кадров/сек
Цветовое пространство : YUV
Субдискретизация насыщенности : 4:2:0
Битовая глубина : 8 бит
Тип развёртки : Прогрессивная
Метод сжатия : С потерями
Бит/(Пиксели*Кадры) : 0.195
Размер потока : 993 Мбайт (89%)
Библиотека кодирования : XviD 1.2.1 (UTC 2008-12-04)

Аудио
Идентификатор : 1
Формат : AC-3
Формат/Информация : Audio Coding 3
Расширение режима : CM (complete main)
Параметр Endianness формата : Big
Идентификатор кодека : 2000
Продолжительность : 1 ч. 25 м.
Вид битрейта : Постоянный
Битрейт : 192 Кбит/сек
Каналы : 2 канала
Расположение каналов : Front: L R
Частота : 48,0 КГц
Частота кадров : 31,250 кадров/сек (1536 spf)
Битовая глубина : 16 бит
Метод сжатия : С потерями
Размер потока : 117 Мбайт (11%)
Выравнивание : Разделение по промежуткам
Продолжительность промежутка : 40 мс. (1,00 видеокадр)
Время предзагрузки промежутка : 500 мс
pb.wtf



Скачать Дорога правды через торрент http://s014.radikal.ru/i327/1612/65/7418a3178315.png Скачать фильм Дорога правды через торрент бесплантно в хорошем качестве Описание:Киноповесть.Оптимистическая драма о рядовой московской труженице, которая благодаря своей принципиальности, уму и справедливости ... 10 10 1
Info! Золотая раздача, скачанное не засчитывается.
Торрент: Зарегистрирован [2016-12-02 09:38] · скачан: 20 раз
Статус: √ проверено
Размер: 1.09 GB
Как cкачать? Как скачать Дорога правды через торрент | qTorrent

% Раздел Тема Автор DL S | L
Кино СССР [ 1.09 GB ] Дорога правды [1956 СССР SATRip-AVC от AVP Studio] AVP Studio Скачать
1 | 0
Кино СССР [ 745 MB ] Дорога правды [1956 СССР SATRip от AVP Studio] AVP Studio Скачать
1 | 0
Документальные фильмы и телепередачи [ 320 MB ] Дыхание планеты. Сирия: горькая дорога к правде [2011 документальный TVRip] metanoia Скачать
1 | 0
    Дорогой пользователь! Огромная просьба, поблагодарите релизера, оцените раздачу и оставьте свои комментарий, если Вы скачали Дорога правды через торрент бесплатно! Внесите свою лепту в развитие PiratBit!
    Комментировать посты могут только пользователи прошедшие не сложную регистрацию
    Показать сообщения:    

    Дорога правды через торрент
    Скачать бесплатно Дорога правды
    Дорога правды скачать торрент
    Дорога правды смотреть онлайн
    Cкачать фильм Дорога правды бесплатно
    Дорога правды скачать торрент в хорошем качестве
    Дорога правды смотреть онлайн бесплатно в хорошем качестве


    Вы не можете начинать темы
    Вы не можете отвечать на сообщения
    Вы не можете редактировать свои сообщения
    Вы не можете удалять свои сообщения
    Вы не можете голосовать в опросах
    Вы не можете прикреплять файлы к сообщениям
    Вы можете скачивать файлы