Ссылка на приватное зеркало нашего сайта всего за 1$. Внимание количество ограничено!!!

2 сезон

iTunes

1 сезон

1

iTunes

iTunes

iTunes

1 сезон

RePack

30

ИГРА 18+

pack

ВАЖНО

!!Акция!!

Alien_RageХит недели

RePack

MK11
pack

Забери бонус

RePack

jed

!!Акция!!

Alien_Rage

RePack

fifa19

RePack

Assassins Creed: Odyssey

RePack

NEED FOR SPEED™ PAYBACK

4 сезон

9 сезон

Бесстыжие 9 сезон

Все сериалы

все сериалы на PB.wtf

RePack

FAR CRY 5
  

Отряд самоубийц / Suicide Squad (Дэвид Эйр ) [2016, фантастика, фэнтези, боевик, BDRip 720p от potroks] Театральная версия / Лицензия pb.wtf

Отряд самоубийц через торрент pb.wtf

Раздают: 2 [ 0 KB/s ]
Размер: 4.37 GB | Добавлен: 3 года 10 мес. назад | Торрент скачан:1110 раз
Скачать  

03-12-2016 10:52 Отряд самоубийц Скачать торрент  

Отряд самоубийц / Suicide Squad

Год выпуска: 2016
Страна: США / Warner Bros. Pictures....
Жанр: фантастика, фэнтези, боевик, приключения
Продолжительность: 02:02:53
Перевод: Дубляж [Blu-ray 3D CEE]
Субтитры: русские (форс.(x2)), русские (Blu-ray), английские
Навигация по главам: есть
Режиссер: Дэвид Эйр
В ролях:

Марго Робби (Harley Quinn), Уилл Смит (Deadshot), Джаред Лето (The Joker), Джай Кортни (George Harkness / Captain Boomerang), Кара Делевинь (June Moone / Enchantress), Джей Эрнандес (Diablo), Юэль Киннаман (Rick Flag), Виола Дэвис (Amanda Waller), Адевале Акинойе-Агбаже (Killer Croc), Скотт Иствуд (Lieutenant GQ Edwards), Джейм Фицсаймонс (Sergeant Ames Bravo 14), Айк Баринхолц (Griggs)
Описание: Правительство решает дать команде суперзлодеев шанс на искупление. Подвох в том, что их отправляют на миссию, где они, вероятнее всего, погибнут.

Качество: BDRip 720p
Формат: MKV
Видео: AVC, 1280x534 (2.40:1), 4197 kbps, 23,976 fps, 0,256 bpp
Аудио №1: AC3 / 5.1 / 48 kHz / 448 kbps / 16 bit |RUS
Аудио №2: AC3 / 5.1 / 48 kHz / 448 kbps / 16 bit |ENG
General
Unique ID : 245699569408372283976307461348855416004 (0xB8D8040BC640867EA8F5BFC8FCD084C4)
Complete name : D:\Otryad.Samoudiytc.2016.TC.DUAL.BDRip.720p.-HELLYWOOD.mkv
Format : Matroska
Format version : Version 4 / Version 2
File size : 4.37 GiB
Duration : 2 h 2 min
Overall bit rate : 5 095 kb/s
Movie name : Suicide Squad (2016) [Theatrical Cut]
Encoded date : UTC 2016-12-03 09:36:18
Writing application : mkvmerge v5.9.0 ('On The Loose') built on Dec 15 2012 16:39:58
Writing library : libebml v1.3.0 + libmatroska v1.4.0

Video
ID : 1
Format : AVC
Format/Info : Advanced Video Codec
Format profile : High@L4.1
Format settings, CABAC : Yes
Format settings, ReFrames : 9 frames
Codec ID : V_MPEG4/ISO/AVC
Duration : 2 h 2 min
Bit rate : 4 197 kb/s
Width : 1 280 pixels
Height : 534 pixels
Display aspect ratio : 2.40:1
Frame rate mode : Constant
Frame rate : 23.976 FPS
Color space : YUV
Chroma subsampling : 4:2:0
Bit depth : 8 bits
Scan type : Progressive
Bits/(Pixel*Frame) : 0.256
Stream size : 3.52 GiB (80%)
Title : potroks
Writing library : x264 core 146 r2538 121396c
Encoding settings : cabac=1 / ref=9 / deblock=1:-3:-3 / analyse=0x3:0x113 / me=umh / subme=11 / psy=1 / psy_rd=0.94:0.00 / mixed_ref=1 / me_range=48 / chroma_me=1 / trellis=2 / 8x8dct=1 / cqm=0 / deadzone=21,11 / fast_pskip=0 / chroma_qp_offset=-2 / threads=9 / lookahead_threads=2 / sliced_threads=0 / nr=0 / decimate=0 / interlaced=0 / bluray_compat=0 / constrained_intra=0 / bframes=10 / b_pyramid=2 / b_adapt=2 / b_bias=0 / direct=3 / weightb=1 / open_gop=0 / weightp=2 / keyint=240 / keyint_min=23 / scenecut=40 / intra_refresh=0 / rc_lookahead=60 / rc=2pass / mbtree=0 / bitrate=4197 / ratetol=1.0 / qcomp=0.70 / qpmin=0 / qpmax=69 / qpstep=4 / cplxblur=20.0 / qblur=0.5 / vbv_maxrate=14000 / vbv_bufsize=14000 / nal_hrd=none / filler=0 / ip_ratio=1.40 / pb_ratio=1.30 / aq=1:0.80
Language : English
Default : Yes
Forced : No

Audio #1
ID : 2
Format : AC-3
Format/Info : Audio Coding 3
Mode extension : CM (complete main)
Format settings, Endianness : Big
Codec ID : A_AC3
Duration : 2 h 2 min
Bit rate mode : Constant
Bit rate : 448 kb/s
Channel(s) : 6 channels
Channel positions : Front: L C R, Side: L R, LFE
Sampling rate : 48.0 kHz
Frame rate : 31.250 FPS (1536 spf)
Compression mode : Lossy
Stream size : 394 MiB (9%)
Title : Dub | DD 5.1 @ 448 kbps - Blu-ray 3D CEE
Language : Russian
Default : Yes
Forced : No

Audio #2
ID : 3
Format : AC-3
Format/Info : Audio Coding 3
Mode extension : CM (complete main)
Format settings, Endianness : Big
Codec ID : A_AC3
Duration : 2 h 2 min
Bit rate mode : Constant
Bit rate : 448 kb/s
Channel(s) : 6 channels
Channel positions : Front: L C R, Side: L R, LFE
Sampling rate : 48.0 kHz
Frame rate : 31.250 FPS (1536 spf)
Compression mode : Lossy
Stream size : 394 MiB (9%)
Title : Original | DD 5.1 @ 448 kbps
Language : English
Default : No
Forced : No

Text #1
ID : 4
Format : UTF-8
Codec ID : S_TEXT/UTF8
Codec ID/Info : UTF-8 Plain Text
Title : Forced [Blu-ray CEE]
Language : Russian
Default : Yes
Forced : No

Text #2
ID : 5
Format : UTF-8
Codec ID : S_TEXT/UTF8
Codec ID/Info : UTF-8 Plain Text
Title : Forced v2
Language : Russian
Default : No
Forced : No

Text #3
ID : 6
Format : UTF-8
Codec ID : S_TEXT/UTF8
Codec ID/Info : UTF-8 Plain Text
Title : Blu-ray CEE
Language : Russian
Default : No
Forced : No

Text #4
ID : 7
Format : UTF-8
Codec ID : S_TEXT/UTF8
Codec ID/Info : UTF-8 Plain Text
Language : English
Default : No
Forced : No

Menu
00:00:00.000 : en:(01)00:00:00:000
00:09:07.505 : en:(02)00:09:07:505
00:19:03.725 : en:(03)00:19:03:725
00:29:27.140 : en:(04)00:29:27:140
00:39:17.313 : en:(05)00:39:17:313
00:50:21.226 : en:(06)00:50:21:226
01:00:10.106 : en:(07)01:00:10:106
01:11:46.927 : en:(08)01:11:46:927
01:22:46.127 : en:(09)01:22:46:127
01:32:01.098 : en:(10)01:32:01:098
01:39:21.830 : en:(11)01:39:21:830
01:52:27.991 : en:(12)01:52:27:991
02:02:53.240 : en:(13)02:02:53:240
pb.wtf



Скачать Отряд самоубийц через торрент http://i83.fastpic.ru/big/2016/1203/ba/8c6cb0073bc2049dd81522dca63c0aba.png Скачать фильм Отряд самоубийц через торрент бесплантно в хорошем качестве Описание: Правительство решает дать команде суперзлодеев шанс на искупление. Подвох в том, что их отправляют на миссию, где они, вероятнее ... 9.6 10 15
Info! Золотая раздача, скачанное не засчитывается.
Торрент: Зарегистрирован [2016-12-03 10:52] · скачан: 1 110 раз
Статус: √ проверено
Размер: 4.37 GB
Как cкачать? Как скачать Отряд самоубийц через торрент | qTorrent

% Раздел Тема Автор DL S | L
Фильмы 2016 [DVDrip, WEB-DLRip, HDrip] (DUB, MVO) [ 2.19 GB ] Отряд самоубийц / Suicide Squad [2016 BDRip] - [] Twi7ter Скачать
2 | 0
Фильмы 2016 [DVDrip, WEB-DLRip, HDrip] (DUB, MVO) [ 1.46 GB ] Отряд самоубийц / Suicide Squad [2016 BDRip] - [] Twi7ter Скачать
1 | 0

28-11-2019 20:33  

Отключить всю рекламу на сайте

    Дорогой пользователь! Огромная просьба, поблагодарите релизера, оцените раздачу и оставьте свои комментарий, если Вы скачали Отряд самоубийц через торрент бесплатно! Внесите свою лепту в развитие PiratBit!
    Комментировать посты могут только пользователи прошедшие не сложную регистрацию
    Показать сообщения:    

    Отряд самоубийц через торрент
    Скачать бесплатно Отряд самоубийц
    Отряд самоубийц скачать торрент
    Отряд самоубийц смотреть онлайн
    Cкачать фильм Отряд самоубийц бесплатно
    Отряд самоубийц скачать торрент в хорошем качестве
    Отряд самоубийц смотреть онлайн бесплатно в хорошем качестве


    Вы не можете начинать темы
    Вы не можете отвечать на сообщения
    Вы не можете редактировать свои сообщения
    Вы не можете удалять свои сообщения
    Вы не можете голосовать в опросах
    Вы не можете прикреплять файлы к сообщениям
    Вы можете скачивать файлы