Ссылка на приватное зеркало всего за 1$. Внимание количество ограничено!!!

iTunes

1+1

iTunes

мы

WEB-DL

1

iTunes

Чернобыль

iTunes

Ральф против интернета

Лицензия

ПШазам

Лицензия

Оно 2

Лицензия

30
pack

Вам бонус

ВАЖНО

!!Акция!!

Alien_RageХит недели

RePack

Resident Evil 21

ИГРА 18+

pack

RePack

jed

!!Акция!!

Alien_Rage

RePack

fifa19

RePack

Assassins Creed: Odyssey

RePack

NEED FOR SPEED™ PAYBACK

3 сезон

9 сезон

Бесстыжие 9 сезон

Все сериалы

все сериалы на PB.wtf

RePack

FAR CRY 5
Ребята, катастрофически не хватает 1900р. для оплаты серверов за Октябрь (всвязи с блокировками трафик упал в 3 раза), 1-2р., выручайте.
  

Две жизни (Константин Воинов) [1956, СССР, короткометражка, драма, SATRip от AVP Studio] pb.wtf

Две жизни через торрент pb.wtf

Размер: 745 MB | Добавлен: 3 года назад | Торрент скачан:15 раз
Скачать  

03-12-2016 11:45 Две жизни Скачать торрент  

Две жизни
Страна: СССР
Производство: Мосфильм

Жанр: короткометражка, драма
Год выпуска: 1956
Продолжительность: 00:43:33

Перевод: Не требуется
Cубтитры: нет
Оригинальная аудиодорожка: русский

Режиссер: Константин Воинов

В ролях:
Лидия Смирнова, Мария Пастухова, Евгений Буренков, Пётр Савин, Светлана Харитонова, Любовь Соколова, Лидия Виноградова...
Полный список актёров

Описание:
По рассказу Павла Нилина "Жучка".
О жизни двух сестер. Двадцать лет назад Настя Самокурова уехала из села в город счастье искать. Жила в городе легкой, привольной жизнью, занимаясь спекуляцией. И вот теперь приехала этакой «столичной штучкой» погостить к своей сестре Даше, которая продолжала жить в колхозе и пользовалась всеобщим уважением.
Фильм снят по заказу Центральной студии телевидения.

Источник: DVB
Качество видео: SATRip
Формат видео: AVI

Видео: 704x528 (4:3), 25 fps, XviD ~ 2190 kbps avg, 0.236 bit/pixel
Аудио: 48 kHz, Dolby Digital AC3 2.0, 192 kbps

Раздача от:
Общее
Полное имя : Dve.zhizni.1956.SATRip_[New-team]_by_AVP_Studio.avi
Формат : AVI
Формат/Информация : Audio Video Interleave
Размер файла : 745 Мбайт
Продолжительность : 43 м. 33 с.
Общий поток : 2392 Кбит/сек
Программа кодирования : VirtualDubMod 1.5.10.3 | www.virtualdub-fr.org || (build 2550/release)
Библиотека кодирования : VirtualDubMod build 2550/release

Видео
Идентификатор : 0
Формат : MPEG-4 Visual
Профиль формата : Advanced Simple@L5
Параметр BVOP формата : 1
Параметр QPel формата : Нет
Параметр GMC формата : Без точки перехода
Параметр матрицы формата : Выборочная
Идентификатор кодека : XVID
Идентификатор кодека/Подсказка : XviD
Продолжительность : 43 м. 33 с.
Битрейт : 2190 Кбит/сек
Ширина : 704 пикселя
Высота : 528 пикселей
Соотношение сторон : 4:3
Частота кадров : 25,000 кадров/сек
Цветовое пространство : YUV
Субдискретизация насыщенности : 4:2:0
Битовая глубина : 8 бит
Тип развёртки : Прогрессивная
Метод сжатия : С потерями
Бит/(Пиксели*Кадры) : 0.236
Размер потока : 682 Мбайт (92%)
Библиотека кодирования : XviD 1.2.1 (UTC 2008-12-04)

Аудио
Идентификатор : 1
Формат : AC-3
Формат/Информация : Audio Coding 3
Расширение режима : CM (complete main)
Параметр Endianness формата : Big
Идентификатор кодека : 2000
Продолжительность : 43 м. 33 с.
Вид битрейта : Постоянный
Битрейт : 192 Кбит/сек
Каналы : 2 канала
Расположение каналов : Front: L R
Частота : 48,0 КГц
Частота кадров : 31,250 кадров/сек (1536 spf)
Битовая глубина : 16 бит
Метод сжатия : С потерями
Размер потока : 59,8 Мбайт (8%)
Выравнивание : Разделение по промежуткам
Продолжительность промежутка : 40 мс. (1,00 видеокадр)
Время предзагрузки промежутка : 500 мс
pb.wtf



Скачать Две жизни через торрент http://i075.radikal.ru/1612/7c/c074aee8c936.png Скачать фильм Две жизни через торрент бесплантно в хорошем качестве Описание:По рассказу Павла Нилина "Жучка".О жизни двух сестер. Двадцать лет назад Настя Самокурова уехала из села в город счастье искать. ... 5 10 1
Info! Золотая раздача, скачанное не засчитывается.
Торрент: Зарегистрирован [2016-12-03 11:45] · скачан: 15 раз
Статус: √ проверено
Размер: 745 MB
Как cкачать? Как скачать Две жизни через торрент | qTorrent

% Раздел Тема Автор DL S | L
Кино СССР [ 4.25 GB ] Две жизни [1961 Киноповесть DVDRip-AVC от KORSAR] filbi1976 Скачать
2 | 0
Наши сериалы [ 6.16 GB ] Две жизни / Серии: 1-12 из 12 [2016 SATRip-AVC] aleksan55 Скачать
1 | 0
Кино СССР [ 745 MB ] Две жизни [1956 СССР короткометражка SATRip-AVC от AVP Studio] AVP Studio Скачать
1 | 0
Документальные фильмы и телепередачи [ 546 MB ] Вечно молодой. Две жизни Сергея Бодрова [2015 Документальный SATRip Оригинал] Ворон Скачать
1 | 0
Документальные фильмы и телепередачи [ 696 MB ] Две жизни Джорджа Блейка. Или Агент КГБ на службе Ее Величества [2012 Документальный история биография SATRip Оригинал] кэп Скачать
1 | 0

28-11-2019 20:33  

Отключить всю рекламу на сайте

    Дорогой пользователь! Огромная просьба, поблагодарите релизера, оцените раздачу и оставьте свои комментарий, если Вы скачали Две жизни через торрент бесплатно! Внесите свою лепту в развитие PiratBit!
    Комментировать посты могут только пользователи прошедшие не сложную регистрацию
    Показать сообщения:    

    Две жизни через торрент
    Скачать бесплатно Две жизни
    Две жизни скачать торрент
    Две жизни смотреть онлайн
    Cкачать фильм Две жизни бесплатно
    Две жизни скачать торрент в хорошем качестве
    Две жизни смотреть онлайн бесплатно в хорошем качестве


    Вы не можете начинать темы
    Вы не можете отвечать на сообщения
    Вы не можете редактировать свои сообщения
    Вы не можете удалять свои сообщения
    Вы не можете голосовать в опросах
    Вы не можете прикреплять файлы к сообщениям
    Вы можете скачивать файлы