новый адрес
Мега распродажа FORZA HORIZON 4 ULTIMATE+ВСЕ DLC+ОНЛАЙН всего за 499р. 349 руб. (супер цена). Внимание количество ограничено!!!

iTunes

1+1

iTunes

мы

iTunes

1

iTunes

Чернобыль

iTunes

Ральф против интернета

Лицензия

ПШазам

Лицензия

Игра престолов

Лицензия

30
pack

ВАЖНО

!!Акция!!

Alien_RageХит недели

RePack

Resident Evil 21

ИГРА 18+

pack

RePack

Metro:Exodus

!!Акция!!

Alien_Rage

RePack

fifa19

RePack

Assassins Creed: Odyssey

RePack

NEED FOR SPEED™ PAYBACK

3 сезон

9 сезон

Бесстыжие 9 сезон

Все сериалы

все сериалы на PB.wtf

RePack

FAR CRY 5
Ребята, катастрофически не хватает 1900р. для оплаты серверов за Октябрь (всвязи с блокировками трафик упал в 3 раза), 1-2р., выручайте.
  

Две жизни (Константин Воинов) [1956, СССР, короткометражка, драма, SATRip-AVC от AVP Studio] pb.wtf

Две жизни через торрент pb.wtf

Размер: 745 MB | Добавлен: 2 года 11 мес. назад | Торрент скачан:10 раз
Скачать  

03-12-2016 11:46 Две жизни Скачать торрент  

Две жизни
Страна: СССР
Производство: Мосфильм

Жанр: короткометражка, драма
Год выпуска: 1956
Продолжительность: 00:43:33

Перевод: Не требуется
Cубтитры: нет
Оригинальная аудиодорожка: русский

Режиссер: Константин Воинов

В ролях:
Лидия Смирнова, Мария Пастухова, Евгений Буренков, Пётр Савин, Светлана Харитонова, Любовь Соколова, Лидия Виноградова...
Полный список актёров

Описание:
По рассказу Павла Нилина "Жучка".
О жизни двух сестер. Двадцать лет назад Настя Самокурова уехала из села в город счастье искать. Жила в городе легкой, привольной жизнью, занимаясь спекуляцией. И вот теперь приехала этакой «столичной штучкой» погостить к своей сестре Даше, которая продолжала жить в колхозе и пользовалась всеобщим уважением.
Фильм снят по заказу Центральной студии телевидения.

Источник: DVB
Качество видео: SATRip-AVC
Формат видео: MKV

Видео: 704->730x548 (4:3), 25 fps, H264 ~ 2197 kbps avg, 0.228 bit/pixel
Аудио: 48 kHz, Dolby Digital AC3 2.0, 192 kbps

Раздача от:
Общее
Полное имя : Dve.zhizni.1956.SATRip-AVC_[New-team]_by_AVP_Studio.mkv
Формат : Matroska
Версия формата : Version 2
Размер файла : 745 Мбайт
Продолжительность : 43 м. 33 с.
Общий поток : 2391 Кбит/сек
Дата кодирования : UTC 2016-12-02 13:22:50
Программа кодирования : mkvmerge v6.1.0 ('Old Devil') built on Mar 4 2013 09:10:42
Библиотека кодирования : libebml v1.3.0 + libmatroska v1.4.0

Видео
Идентификатор : 1
Формат : AVC
Формат/Информация : Advanced Video Codec
Профиль формата : High@L4.1
Параметр CABAC формата : Да
Параметр ReFrames формата : 10 кадров
Идентификатор кодека : V_MPEG4/ISO/AVC
Продолжительность : 43 м. 33 с.
Битрейт : 2197 Кбит/сек
Ширина : 704 пикселя
Высота : 548 пикселей
Соотношение сторон : 4:3
Режим частоты кадров : Постоянный
Частота кадров : 25,000 кадров/сек
Цветовое пространство : YUV
Субдискретизация насыщенности : 4:2:0
Битовая глубина : 8 бит
Тип развёртки : Прогрессивная
Бит/(Пиксели*Кадры) : 0.228
Размер потока : 670 Мбайт (90%)
Библиотека кодирования : x264 core 148 r2597 e86f3a1
Настройки программы : cabac=1 / ref=10 / deblock=1:-2:-1 / analyse=0x3:0x113 / me=umh / subme=10 / psy=1 / psy_rd=1.00:0.00 / mixed_ref=1 / me_range=32 / chroma_me=1 / trellis=2 / 8x8dct=1 / cqm=0 / deadzone=21,11 / fast_pskip=1 / chroma_qp_offset=-2 / threads=6 / lookahead_threads=1 / sliced_threads=0 / nr=0 / decimate=0 / interlaced=0 / bluray_compat=0 / constrained_intra=0 / bframes=8 / b_pyramid=2 / b_adapt=2 / b_bias=0 / direct=3 / weightb=1 / open_gop=0 / weightp=2 / keyint=250 / keyint_min=25 / scenecut=40 / intra_refresh=0 / rc=2pass / mbtree=0 / bitrate=2197 / ratetol=1.0 / qcomp=0.60 / qpmin=0 / qpmax=69 / qpstep=4 / cplxblur=20.0 / qblur=0.5 / ip_ratio=1.40 / pb_ratio=1.30 / aq=1:1.00
Default : Да
Forced : Нет

Аудио
Идентификатор : 2
Формат : AC-3
Формат/Информация : Audio Coding 3
Расширение режима : CM (complete main)
Параметр Endianness формата : Big
Идентификатор кодека : A_AC3
Продолжительность : 43 м. 33 с.
Вид битрейта : Постоянный
Битрейт : 192 Кбит/сек
Каналы : 2 канала
Расположение каналов : Front: L R
Частота : 48,0 КГц
Частота кадров : 31,250 кадров/сек (1536 spf)
Битовая глубина : 16 бит
Метод сжатия : С потерями
Размер потока : 59,8 Мбайт (8%)
Default : Да
Forced : Нет
pb.wtf



Скачать Две жизни через торрент http://i075.radikal.ru/1612/7c/c074aee8c936.png Скачать фильм Две жизни через торрент бесплантно в хорошем качестве Описание:По рассказу Павла Нилина "Жучка".О жизни двух сестер. Двадцать лет назад Настя Самокурова уехала из села в город счастье искать. ... 5 10 1
Info! Золотая раздача, скачанное не засчитывается.
Торрент: Зарегистрирован [2016-12-03 11:46] · скачан: 10 раз
Статус: √ проверено
Размер: 745 MB
Как cкачать? Как скачать Две жизни через торрент | qTorrent

% Раздел Тема Автор DL S | L
Кино СССР [ 4.25 GB ] Две жизни [1961 Киноповесть DVDRip-AVC от KORSAR] filbi1976 Скачать
2 | 0
Наши сериалы [ 6.16 GB ] Две жизни / Серии: 1-12 из 12 [2016 SATRip-AVC] aleksan55 Скачать
1 | 0
Кино СССР [ 745 MB ] Две жизни [1956 СССР короткометражка SATRip от AVP Studio] AVP Studio Скачать
1 | 0
Документальные фильмы и телепередачи [ 546 MB ] Вечно молодой. Две жизни Сергея Бодрова [2015 Документальный SATRip Оригинал] Ворон Скачать
1 | 0
Документальные фильмы и телепередачи [ 696 MB ] Две жизни Джорджа Блейка. Или Агент КГБ на службе Ее Величества [2012 Документальный история биография SATRip Оригинал] кэп Скачать
1 | 0


>> Регистрируемся здесь <<






Отзывы и комментарии о схеме читаем и пишем здесь: ---> Отзывы и комментарии о схеме

Новые благодарочки в телеграм довольных пользователей:
скриншот   скриншот   скриншот   скриншот   скриншот
    Дорогой пользователь! Огромная просьба, поблагодарите релизера, оцените раздачу и оставьте свои комментарий, если Вы скачали Две жизни через торрент бесплатно! Внесите свою лепту в развитие PiratBit!
    Комментировать посты могут только пользователи прошедшие не сложную регистрацию
    Показать сообщения:    

    Две жизни через торрент
    Скачать бесплатно Две жизни
    Две жизни скачать торрент
    Две жизни смотреть онлайн
    Cкачать фильм Две жизни бесплатно
    Две жизни скачать торрент в хорошем качестве
    Две жизни смотреть онлайн бесплатно в хорошем качестве


    Вы не можете начинать темы
    Вы не можете отвечать на сообщения
    Вы не можете редактировать свои сообщения
    Вы не можете удалять свои сообщения
    Вы не можете голосовать в опросах
    Вы не можете прикреплять файлы к сообщениям
    Вы можете скачивать файлы