MEGA SALE -50% FORZA HORIZON 4 ULTIMATE+ВСЕ DLC+ОНЛАЙН всего за 599р. 299 руб. (супер цена). Внимание количество ограничено!!!

iTunes

1+1

iTunes

мы

iTunes

1

iTunes

Чернобыль

iTunes

Ральф против интернета

Лицензия

ПШазам

Лицензия

Игра престолов

Лицензия

30
pack

ВАЖНО

!!Акция!!

Alien_RageХит недели

RePack

Resident Evil 21

ИГРА 18+

pack

RePack

Metro:Exodus

!!Акция!!

Alien_Rage

RePack

fifa19

RePack

Assassins Creed: Odyssey

RePack

NEED FOR SPEED™ PAYBACK

3 сезон

9 сезон

Бесстыжие 9 сезон

Все сериалы

все сериалы на PB.wtf

RePack

FAR CRY 5
Ребята, катастрофически не хватает 7730р. для оплаты серверов за АВГУСТ (всвязи с блокировками трафик упал в 3 раза), 1-2р., выручайте.
  

Гранд Тур / The Grand Tour / Сезон 1 / Серии 1-13 из 13 [2016., Авто-шоу, WEBRip 720p] [MVO] (AlexFilm) pb.wtf

Гранд Тур через торрент pb.wtf

Размер: 47.96 GB | Добавлен: 2 года 7 мес. назад | Торрент скачан:184 раза
Скачать  

20-11-2016 08:12 Гранд Тур Скачать торрент  

ГРАНД ТУР / THE GRAND TOUR

Дата выпуска: 2016
Страна: США
Производство: Amazon
Жанр: Авто-шоу
Продолжительность: ~ 01:10:00
Перевод: Профессиональный (многоголосый закадровый) [AlexFilm]
Субтитры: нет

Режиссер: Phil Churchward (1-я серия)

Ведущие: Джереми Кларксон, Ричард Хаммонд и Джэймс Мэй

Описание: Предлагаем вашему вниманию долгожданный многими фанатами автомобилей проект с легендарными ведущими Джереми Кларксоном, Джеймом Мэйем и Ричардом Хаммондом. В центре внимания проекта оказываются автомобили со всего света. Ведущие отправляются в большое путешествие по миру, чтобы найти раритетные модели авто или же невероятные суперкары. В каждом новом городе будет снят очередной эпизод этого шоу, а ведущие проведут тест драйв местных автомобилей, рассказав о них кое-что по-настоящему интересное. На улице любителей "Топ Гира" огромный праздник - "Гранд Тур" вашему вниманию!


Качество: WEBRip 720p
Формат: MKV
Видео кодек: h.264
Аудио кодек: AC3
Видео: AVC, 1280×720 at 23.976 fps, ~6200 kbps avg, ~0.282 bit/pixel
Аудио Rus: 48 kHz, AC3 Dolby Digital, 3/2 (L,C,R,l,r) + LFE ch, ~384.00 kbps
Аудио Eng: 48 kHz, AC3 Dolby Digital, 3/2 (L,C,R,l,r) + LFE ch, ~384.00 kbps
Внимание! Раздача ведётся путём добавления новых серий; при каждом добавлении создётся новый торрент. Чтобы начать докачку новой серии, пользователям необходимо сделать следующее:
Остановить скачивание.
Удалить старый торрент у себя из клиента (старые серии удалять не надо).
Скачать новый торрент и запустить его у себя в клиенте вместо старого, при этом указать клиенту путь в старую папку куда и должно происходить скачивание новых серий.
Ваш клиент при этом должен произвести хеширование (проверку) старой папки (если не производит сам - помогите ему сделать это), и будет докачивать только те серии которых у вас ещё нет. Старые серии при этом не удаляются, а продолжают раздаваться!
Eсли вы уже удалили старые серии, то предотвратить повторную закачку старых серий можно, отжав галочку в соответсвующих местах при запуске нового торрента. По возможности, желательно не удалять старые серии как можно дольше чтобы релизёр не столько продолжал раздавать старые серии, а смог сконцентрироваться на новых.
Формат : Matroska
Версия формата : Version 4 / Version 2
Размер файла : 3,55 Гбайт
Продолжительность : 1 ч. 11 м.
Общий поток : 7142 Кбит/сек
Название фильма : The Grand Tour 1x01 @ AlexFilm
Дата кодирования : UTC 2016-11-19 21:34:57
Программа кодирования : mkvmerge v7.1.0 ('Good Love') 64bit built on Jul 27 2014 13:06:55
Библиотека кодирования : libebml v1.3.0 + libmatroska v1.4.1

Видео
Идентификатор : 1
Формат : AVC
Формат/Информация : Advanced Video Codec
Профиль формата : High@L4.1
Параметр CABAC формата : Да
Параметр ReFrames формата : 9 кадров
Идентификатор кодека : V_MPEG4/ISO/AVC
Продолжительность : 1 ч. 11 м.
Битрейт : 6232 Кбит/сек
Ширина : 1280 пикселей
Высота : 720 пикселей
Соотношение сторон : 16:9
Режим частоты кадров : Постоянный
Частота кадров : 23,976 (24000/1001) кадра/сек
Цветовое пространство : YUV
Субдискретизация насыщенности : 4:2:0
Битовая глубина : 8 бит
Тип развёртки : Прогрессивная
Бит/(Пиксели*Кадры) : 0.282
Размер потока : 3,09 Гбайт (87%)
Библиотека кодирования : x264 core 144 r2525 40bb568
Настройки программы : cabac=1 / ref=9 / deblock=1:-3:-3 / analyse=0x3:0x133 / me=umh / subme=10 / psy=1 / psy_rd=1.00:0.00 / mixed_ref=1 / me_range=48 / chroma_me=1 / trellis=2 / 8x8dct=1 / cqm=0 / deadzone=21,11 / fast_pskip=0 / chroma_qp_offset=-2 / threads=6 / lookahead_threads=1 / sliced_threads=0 / nr=0 / decimate=0 / interlaced=0 / bluray_compat=0 / constrained_intra=0 / bframes=8 / b_pyramid=2 / b_adapt=2 / b_bias=0 / direct=3 / weightb=1 / open_gop=0 / weightp=2 / keyint=250 / keyint_min=23 / scenecut=40 / intra_refresh=0 / rc=crf / mbtree=0 / crf=17.0 / qcomp=0.60 / qpmin=0 / qpmax=69 / qpstep=4 / ip_ratio=1.30 / pb_ratio=1.20 / aq=3:0.80
Язык : English
Default : Да
Forced : Нет

Аудио #1
Идентификатор : 2
Формат : AC-3
Формат/Информация : Audio Coding 3
Расширение режима : CM (complete main)
Параметр Endianness формата : Big
Идентификатор кодека : A_AC3
Продолжительность : 1 ч. 11 м.
Вид битрейта : Постоянный
Битрейт : 384 Кбит/сек
Каналы : 6 каналов
Расположение каналов : Front: L C R, Side: L R, LFE
Частота : 48,0 КГц
Частота кадров : 31,250 кадров/сек (1536 spf)
Метод сжатия : С потерями
Размер потока : 195 Мбайт (5%)
Заголовок : DD5.1 AlexFilm
Язык : Russian
Default : Да
Forced : Нет

Аудио #2
Идентификатор : 3
Формат : AC-3
Формат/Информация : Audio Coding 3
Расширение режима : CM (complete main)
Параметр Endianness формата : Big
Идентификатор кодека : A_AC3
Продолжительность : 1 ч. 11 м.
Вид битрейта : Постоянный
Битрейт : 384 Кбит/сек
Каналы : 6 каналов
Расположение каналов : Front: L C R, Side: L R, LFE
Частота : 48,0 КГц
Частота кадров : 31,250 кадров/сек (1536 spf)
Метод сжатия : С потерями
Размер потока : 195 Мбайт (5%)
Заголовок : DD5.1 Original
Язык : English
Default : Нет
Forced : Нет
pb.wtf



Скачать Гранд Тур через торрент http://i84.fastpic.ru/big/2016/1128/80/631afcbe4c2260d8aec96d737bba2a80.jpg Скачать фильм Гранд Тур через торрент бесплантно в хорошем качестве Описание: Предлагаем вашему вниманию долгожданный многими фанатами автомобилей проект с легендарными ведущими Джереми Кларксоном, Джеймом ... 9.6 10 30
Торрент: Зарегистрирован [2017-02-04 11:15] · скачан: 184 раз
Статус: √ проверено
Размер: 47.96 GB
Как cкачать? Как скачать Гранд Тур через торрент | qTorrent

% Раздел Тема Автор DL S | L
T Релизы по Парсеру [Игры, Сериалы и Фильмы и другое...] [ 263.92 GB ] Гранд Тур / The Grand Tour / Сезон 1 / Серии 1-13 из 13 [2016. Авто-шоу WEBRip 2160p] [MVO] killermax2013 Скачать
1 | 0
Автоспорт [ 80.86 GB ] Гранд Тур / The Grand Tour / Сезон 1 / Серии 1-13 из 13 [2016. Авто-шоу WEBRip 1080p] [MVO] killermax2013 Скачать
1 | 0
Автоспорт [ 9.25 GB ] Гранд Тур / The Grand Tour / Сезон 1 / Серии 1-13 из 13 [2016. Авто-шоу WEBRip] [MVO] killermax2013 Скачать
2 | 1
Автоспорт [ 82.8 GB ] Гранд Тур / The Grand Tour / Сезон 1 / Серии 1-13 из 13 [2016. Авто-шоу WEBRip 1080p] [MVO] killermax2013 Скачать
1 | 0


Последний раз редактировалось: killermax2013 (2017-02-04 11:15), всего редактировалось 12 раз(а)


>> Регистрируемся здесь <<






Отзывы и комментарии о схеме читаем и пишем здесь: ---> Отзывы и комментарии о схеме

Новые благодарочки в телеграм довольных пользователей:
скриншот   скриншот   скриншот   скриншот   скриншот

05-01-2017 22:21 Гранд Тур Скачать торрент  

Отлично! Крутое шоу!pb.wtf



    Дорогой пользователь! Огромная просьба, поблагодарите релизера, оцените раздачу и оставьте свои комментарий, если Вы скачали Гранд Тур через торрент бесплатно! Внесите свою лепту в развитие PiratBit!
    Комментировать посты могут только пользователи прошедшие не сложную регистрацию
    Показать сообщения:    

    Гранд Тур через торрент
    Скачать бесплатно Гранд Тур
    Гранд Тур скачать торрент
    Гранд Тур смотреть онлайн
    Cкачать фильм Гранд Тур бесплатно
    Гранд Тур скачать торрент в хорошем качестве
    Гранд Тур смотреть онлайн бесплатно в хорошем качестве


    Вы не можете начинать темы
    Вы не можете отвечать на сообщения
    Вы не можете редактировать свои сообщения
    Вы не можете удалять свои сообщения
    Вы не можете голосовать в опросах
    Вы не можете прикреплять файлы к сообщениям
    Вы можете скачивать файлы