новый адрес пиратбит piratbit
Мега распродажа FORZA HORIZON 4 ULTIMATE+ВСЕ DLC+ОНЛАЙН всего за 499р. 349 руб. (супер цена). Внимание количество ограничено!!!

iTunes

1+1

iTunes

мы

iTunes

1

iTunes

Чернобыль

iTunes

Ральф против интернета

Лицензия

ПШазам

Лицензия

Игра престолов

Лицензия

30
pack

ВАЖНО

!!Акция!!

Alien_RageХит недели

RePack

Resident Evil 21

ИГРА 18+

pack

RePack

Metro:Exodus

!!Акция!!

Alien_Rage

RePack

fifa19

RePack

Assassins Creed: Odyssey

RePack

NEED FOR SPEED™ PAYBACK

3 сезон

9 сезон

Бесстыжие 9 сезон

Все сериалы

все сериалы на PB.wtf

RePack

FAR CRY 5
Ребята, катастрофически не хватает 1900р. для оплаты серверов за Октябрь (всвязи с блокировками трафик упал в 3 раза), 1-2р., выручайте.
  

Остров мертвецов / Isle of the Dead (Ник Лион,Global Asylum,Slightli Distorted Productions) [2016 г., Ужасы,боевик, HDTVRip, Любительский (одноголосый)[Хихи-Док]] pb.wtf

Остров мертвецов через торрент pb.wtf

Размер: 1.45 GB | Добавлен: 2 года 11 мес. назад | Торрент скачан:176 раз
Скачать  

05-12-2016 09:26 Остров мертвецов Скачать торрент  

Остров мертвецов / Isle of the Dead
Год выпуска: 2016
Страна: USA
Жанр: Ужасы,боевик
Продолжительность: 01:24:31
Перевод: Любительский (одноголосый)[Хихи-Док]
Субтитры: English (внешние)

Режиссер: Ник Лион
Студия: Global Asylum,Slightli Distorted Productions


В ролях: Джозеф Лоуренс,Марис Уэллэ,Д.С Дуглас,Джос Кротти,Дачь Барр Джонсон,Эрик Блоссом,Тодд Кеттел.

Описание: Военный отряд отправляется на необитаемый остров в Тихом океане,что бы найти предыдущую пропавшую команду и понять,и понять из-за чего случилось зомби эпидемия,которая уничтожила все живое !


Качество: HDTVRip
Формат: AVI
Видео кодек: XviD
Аудио кодек: AC3
Видео: Xvid,720x400 (16/9), 23.976 fps, ~2060 kbps
Аудио#1: MP3,44100Hz ,2 канала ,192kbps
Аудио#2: AC-3,48,0Hz,16 бит,2 канала ,192kbps


Общее
Полное имя :Isle of the Dead (2016) HDTVRip\Isle of the Dead 2016 HDTVRip.avi
Формат : AVI
Формат/Информация : Audio Video Interleave
Профиль формата : OpenDML
Размер файла : 1,45 Гбайт
Продолжительность : 1 ч. 24 м.
Общий поток : 2464 Кбит/сек
Программа кодирования : XviD4PSP 6.0 / 54.29.105

Видео
Идентификатор : 0
Формат : xvid
Идентификатор кодека : xvid
Продолжительность : 1 ч. 24 м.
Битрейт : 2060 Кбит/сек
Ширина : 720 пикселей
Высота : 400 пикселей
Соотношение сторон : 16:9
Частота кадров : 23,976 кадра/сек
Тип развёртки : Прогрессивная
Бит/(Пиксели*Кадры) : 0.298
Размер потока : 1,22 Гбайт (84%)

Аудио #1
Идентификатор : 1
Формат : MPEG Audio
Версия формата : Version 1
Профиль формата : Layer 3
Идентификатор кодека : 55
Идентификатор кодека/Подсказка : MP3
Продолжительность : 1 ч. 24 м.
Вид битрейта : Постоянный
Битрейт : 192 Кбит/сек
Каналы : 2 канала
Частота : 44,1 КГц
Метод сжатия : С потерями
Размер потока : 116 Мбайт (8%)
Выравнивание : Соединение по промежуткам
Продолжительность промежутка : 26 мс. (0,63 видеокадр)
Заголовок : xixidok

Аудио #2
Идентификатор : 2
Формат : AC-3
Формат/Информация : Audio Coding 3
Расширение режима : CM (complete main)
Параметр Endianness формата : Big
Идентификатор кодека : 2000
Продолжительность : 1 ч. 24 м.
Вид битрейта : Постоянный
Битрейт : 192 Кбит/сек
Каналы : 2 канала
Расположение каналов : Front: L R
Частота : 48,0 КГц
Частота кадров : 31,250 кадров/сек (1536 spf)
Битовая глубина : 16 бит
Метод сжатия : С потерями
Размер потока : 116 Мбайт (8%)
Выравнивание : Соединение по промежуткам
Продолжительность промежутка : 32 мс. (0,77 видеокадр)


pb.wtf



Скачать Остров мертвецов через торрент http://s020.radikal.ru/i705/1609/ee/39572acabc5a.gif Скачать фильм Остров мертвецов через торрент бесплантно в хорошем качестве Описание: Военный отряд отправляется на необитаемый остров в Тихом океане,что бы найти предыдущую пропавшую команду и понять,и понять из-за ... 7.6 10 14
Торрент: Зарегистрирован [2016-12-05 09:26] · скачан: 176 раз
Статус: T временная
Размер: 1.45 GB
Как cкачать? Как скачать Остров мертвецов через торрент | qTorrent



Последний раз редактировалось: DJASFUL (2017-02-06 22:06), всего редактировалось 1 раз


>> Регистрируемся здесь <<






Отзывы и комментарии о схеме читаем и пишем здесь: ---> Отзывы и комментарии о схеме

Новые благодарочки в телеграм довольных пользователей:
скриншот   скриншот   скриншот   скриншот   скриншот

05-12-2016 18:14 Остров мертвецов Скачать торрент  

Первый скрин порадовал, второй не очень, что это у него в глазу??? pb.wtf



05-12-2016 18:55 Остров мертвецов Скачать торрент  

mirage10081988 писал(а):

Первый скрин порадовал, второй не очень, что это у него в глазу???

Они ещё разговаривают!pb.wtf



05-12-2016 23:37 Остров мертвецов Скачать торрент  

zra писал(а):

mirage10081988 писал(а):

Первый скрин порадовал, второй не очень, что это у него в глазу???

Они ещё разговаривают!

В новых 2016 х зомби у режиссеров уже разговаривают )) pb.wtf



06-12-2016 15:15 Остров мертвецов Скачать торрент  

Не... Без Кейджа такие фильмы не смотрибельны.... pb.wtf



07-12-2016 09:22 Остров мертвецов Скачать торрент  

разговаривающие зомби говорите, чувствую сейчас поржёмpb.wtf



    Дорогой пользователь! Огромная просьба, поблагодарите релизера, оцените раздачу и оставьте свои комментарий, если Вы скачали Остров мертвецов через торрент бесплатно! Внесите свою лепту в развитие PiratBit!
    Комментировать посты могут только пользователи прошедшие не сложную регистрацию
    Показать сообщения:    

    Остров мертвецов через торрент
    Скачать бесплатно Остров мертвецов
    Остров мертвецов скачать торрент
    Остров мертвецов смотреть онлайн
    Cкачать фильм Остров мертвецов бесплатно
    Остров мертвецов скачать торрент в хорошем качестве
    Остров мертвецов смотреть онлайн бесплатно в хорошем качестве


    Вы не можете начинать темы
    Вы не можете отвечать на сообщения
    Вы не можете редактировать свои сообщения
    Вы не можете удалять свои сообщения
    Вы не можете голосовать в опросах
    Вы не можете прикреплять файлы к сообщениям
    Вы можете скачивать файлы