Ссылка на приватное зеркало нашего сайта всего за 1$. Внимание количество ограничено!!!

2 сезон

iTunes

1 сезон

1

iTunes

iTunes

iTunes

1 сезон

RePack

30

ИГРА 18+

pack

ВАЖНО

!!Акция!!

Alien_RageХит недели

RePack

MK11
pack

Забери бонус

RePack

jed

!!Акция!!

Alien_Rage

RePack

fifa19

RePack

Assassins Creed: Odyssey

RePack

NEED FOR SPEED™ PAYBACK

4 сезон

9 сезон

Бесстыжие 9 сезон

Все сериалы

все сериалы на PB.wtf

RePack

FAR CRY 5
  

Первый мститель: Противостояние / Captain America: Civil War (Энтони Руссо , Джо Руссо ) [2016, фантастика, боевик, приключения, BDRip 720p от potroks] [IMAX] DUB [iTunes] pb.wtf

Первый мститель: Противостояние через торрент pb.wtf

Размер: 6.49 GB | Добавлен: 3 года 10 мес. назад | Торрент скачан:1311 раз
Скачать  

05-12-2016 10:58 Первый мститель: Противостояние Скачать торрент  

Первый мститель: Противостояние / Captain America: Civil War

Год выпуска: 2016
Страна: США, Германия / Marvel Entertainment, Studio Babelsberg, Vita-Ray Dutch Productions (III)...
Жанр: фантастика, боевик, приключения
Продолжительность: 02:27:57
Перевод: Дубляж [iTunes], профессиональный (многоголосый закадровый)
Субтитры: русские (форс.), русские (iTunes), русские (Medveditsa), английские (Full + SDH)
Навигация по главам: есть
Режиссер: Энтони Руссо , Джо Руссо
В ролях:

Крис Эванс (Steve Rogers / Captain America), Роберт Дауни мл. (Tony Stark / Iron Man), Скарлетт Йоханссон (Natasha Romanoff / Black Widow), Себастьян Стэн (Bucky Barnes / Winter Soldier), Энтони Маки (Sam Wilson / Falcon), Дон Чидл (Lieutenant James Rhodes / War Machine), Джереми Реннер (Clint Barton / Hawkeye), Чедвик Боузман (T'Challa / Black Panther), Пол Беттани (Vision), Элизабет Олсен (Wanda Maximoff / Scarlet Witch), Пол Радд (Scott Lang / Ant-Man), Эмили ВанКэмп (Sharon Carter)
Описание: Мстители под руководством Капитана Америки оказываются участниками разрушительного инцидента, имеющего международный масштаб. Эти события заставляют правительство задуматься над тем, чтобы начать регулировать действия всех людей с особыми способностями, введя «Акт о регистрации супергероев», вынуждая их подчиняться ООН.

Качество: BDRip 720p
Формат: MKV
Видео: AVC, 1280x692 (1,85:1), 4628 kbps, 23,976 fps, 0.218 bpp
Аудио№1: AC3 / 5.1 / 48 kHz / 384 kbps / 16 bit | DUB - iTunes
Аудио№2: AC3 / 5.1 / 48 kHz / 640 kbps / 16 bit | MVO - FocusStudio
Аудио№3: AC3 / 5.1 / 48 kHz / 640 kbps / 16 bit | ENG
Общее
Уникальный идентификатор : 210056771728394445095578385672111680884 (0x9E0776717ED4D2ABA3AEB50FB5A06D74)
Полное имя : D:\Pervyi.Mstitel.Protivostoyaniye.2016.IMAX.2xRus.Eng.BDRip.720p.-HELLYWOOD.mkv
Формат : Matroska
Версия формата : Version 4 / Version 2
Размер файла : 6,49 Гбайт
Продолжительность : 2 ч. 27 м.
Общий поток : 6283 Кбит/сек
Название фильма : Captain America: Civil War (2016) IMAX
Дата кодирования : UTC 2016-12-05 10:44:26
Программа кодирования : mkvmerge v5.9.0 ('On The Loose') built on Dec 15 2012 16:39:58
Библиотека кодирования : libebml v1.3.0 + libmatroska v1.4.0

Видео
Идентификатор : 1
Формат : AVC
Формат/Информация : Advanced Video Codec
Профиль формата : High@L4.1
Параметр CABAC формата : Да
Параметр ReFrames формата : 12 кадров
Идентификатор кодека : V_MPEG4/ISO/AVC
Продолжительность : 2 ч. 27 м.
Битрейт : 4628 Кбит/сек
Ширина : 1280 пикселей
Высота : 692 пикселя
Соотношение сторон : 1,85:1
Режим частоты кадров : Постоянный
Частота кадров : 23,976 кадра/сек
Цветовое пространство : YUV
Субдискретизация насыщенности : 4:2:0
Битовая глубина : 8 бит
Тип развёртки : Прогрессивная
Бит/(Пиксели*Кадры) : 0.218
Размер потока : 4,64 Гбайт (72%)
Заголовок : potroks
Библиотека кодирования : x264 core 146 r2538 121396c
Настройки программы : cabac=1 / ref=12 / deblock=1:-2:-2 / analyse=0x3:0x113 / me=umh / subme=11 / psy=1 / psy_rd=1.04:0.10 / mixed_ref=1 / me_range=48 / chroma_me=1 / trellis=2 / 8x8dct=1 / cqm=0 / deadzone=21,11 / fast_pskip=0 / chroma_qp_offset=-3 / threads=9 / lookahead_threads=2 / sliced_threads=0 / nr=0 / decimate=0 / interlaced=0 / bluray_compat=0 / constrained_intra=0 / bframes=13 / b_pyramid=2 / b_adapt=2 / b_bias=0 / direct=3 / weightb=1 / open_gop=0 / weightp=2 / keyint=240 / keyint_min=23 / scenecut=40 / intra_refresh=0 / rc_lookahead=60 / rc=2pass / mbtree=0 / bitrate=4628 / ratetol=1.0 / qcomp=0.70 / qpmin=0 / qpmax=69 / qpstep=4 / cplxblur=20.0 / qblur=0.5 / vbv_maxrate=14000 / vbv_bufsize=14000 / nal_hrd=none / filler=0 / ip_ratio=1.40 / pb_ratio=1.30 / aq=1:0.80
Язык : English
Default : Да
Forced : Нет

Аудио #1
Идентификатор : 2
Формат : AC-3
Формат/Информация : Audio Coding 3
Расширение режима : CM (complete main)
Параметр Endianness формата : Big
Идентификатор кодека : A_AC3
Продолжительность : 2 ч. 27 м.
Вид битрейта : Постоянный
Битрейт : 384 Кбит/сек
Каналы : 6 каналов
Расположение каналов : Front: L C R, Side: L R, LFE
Частота : 48,0 КГц
Частота кадров : 31,250 кадров/сек (1536 spf)
Метод сжатия : С потерями
Размер потока : 406 Мбайт (6%)
Заголовок : Dub | DD 5.1 @ 384 kbps - iTunes
Язык : Russian
Default : Да
Forced : Нет

Аудио #2
Идентификатор : 3
Формат : AC-3
Формат/Информация : Audio Coding 3
Расширение режима : CM (complete main)
Параметр Endianness формата : Big
Идентификатор кодека : A_AC3
Продолжительность : 2 ч. 27 м.
Вид битрейта : Постоянный
Битрейт : 640 Кбит/сек
Каналы : 6 каналов
Расположение каналов : Front: L C R, Side: L R, LFE
Частота : 48,0 КГц
Частота кадров : 31,250 кадров/сек (1536 spf)
Метод сжатия : С потерями
Размер потока : 677 Мбайт (10%)
Заголовок : MVO | DD 5.1 @ 640 kbps - FocusStudio
Язык : Russian
Default : Нет
Forced : Нет

Аудио #3
Идентификатор : 4
Формат : AC-3
Формат/Информация : Audio Coding 3
Расширение режима : CM (complete main)
Параметр Endianness формата : Big
Идентификатор кодека : A_AC3
Продолжительность : 2 ч. 27 м.
Вид битрейта : Постоянный
Битрейт : 640 Кбит/сек
Каналы : 6 каналов
Расположение каналов : Front: L C R, Side: L R, LFE
Частота : 48,0 КГц
Частота кадров : 31,250 кадров/сек (1536 spf)
Метод сжатия : С потерями
Размер потока : 677 Мбайт (10%)
Заголовок : Original | DD 5.1 @ 640 kbps
Язык : English
Default : Нет
Forced : Нет

Текст #1
Идентификатор : 5
Формат : UTF-8
Идентификатор кодека : S_TEXT/UTF8
Идентификатор кодека/Информация : UTF-8 Plain Text
Заголовок : Forced [potroks]
Язык : Russian
Default : Да
Forced : Нет

Текст #2
Идентификатор : 6
Формат : UTF-8
Идентификатор кодека : S_TEXT/UTF8
Идентификатор кодека/Информация : UTF-8 Plain Text
Заголовок : iTunes
Язык : Russian
Default : Нет
Forced : Нет

Текст #3
Идентификатор : 7
Формат : UTF-8
Идентификатор кодека : S_TEXT/UTF8
Идентификатор кодека/Информация : UTF-8 Plain Text
Заголовок : Medveditsa
Язык : Russian
Default : Нет
Forced : Нет

Текст #4
Идентификатор : 8
Формат : UTF-8
Идентификатор кодека : S_TEXT/UTF8
Идентификатор кодека/Информация : UTF-8 Plain Text
Заголовок : Full
Язык : English
Default : Нет
Forced : Нет

Текст #5
Идентификатор : 9
Формат : UTF-8
Идентификатор кодека : S_TEXT/UTF8
Идентификатор кодека/Информация : UTF-8 Plain Text
Заголовок : SDH
Язык : English
Default : Нет
Forced : Нет

Меню
00:00:00.000 : en:(01)00:00:00:000
00:09:01.957 : en:(02)00:09:01:957
00:13:04.991 : en:(03)00:13:04:991
00:21:03.345 : en:(04)00:21:03:345
00:27:53.380 : en:(05)00:27:53:380
00:31:57.289 : en:(06)00:31:57:289
00:35:08.396 : en:(07)00:35:08:396
00:42:58.449 : en:(08)00:42:58:449
00:52:04.621 : en:(09)00:52:04:621
01:05:39.101 : en:(10)01:05:39:101
01:16:41.637 : en:(11)01:16:41:637
01:22:28.777 : en:(12)01:22:28:777
01:29:29.488 : en:(13)01:29:29:488
01:34:09.769 : en:(14)01:34:09:769
01:45:38.582 : en:(15)01:45:38:582
01:55:54.322 : en:(16)01:55:54:322
02:02:35.055 : en:(17)02:02:35:055
02:12:14.176 : en:(18)02:12:14:176
02:18:29.384 : en:(19)02:18:29:384
02:27:41.685 : en:(20)02:27:41:685
pb.wtf



Скачать Первый мститель: Противостояние через торрент http://i85.fastpic.ru/big/2016/1204/82/e558af1de2dc18c36466a44c1590a782.png Скачать фильм Первый мститель: Противостояние через торрент бесплантно в хорошем качестве Описание: Мстители под руководством Капитана Америки оказываются участниками разрушительного инцидента, имеющего международный масштаб. ... 10 10 23
Info! Золотая раздача, скачанное не засчитывается.
Торрент: Зарегистрирован [2016-12-05 10:58] · скачан: 1 311 раз
Статус: √ проверено
Размер: 6.49 GB
Как cкачать? Как скачать Первый мститель: Противостояние через торрент | qTorrent

% Раздел Тема Автор DL S | L
Фильмы (HD 720p, 1080p) (48-60 fps) [ 4.46 GB ] Первый мститель: Противостояние / Captain America: Civil War [2016 BDRip 720p / 60 FPS ] от R.G. HD-Films slaventi-69 Скачать
1 | 0
Ultra HD (UHD: 2K, 4K, 8K) — видео сверхвысокой чёткости [ 21.79 GB ] Первый мститель: Противостояние / Captain America: Civil War [2016 UHD BDRip 2160p] DUB +AVO+MVO bober100 Скачать
1 | 0
Ultra HD (UHD: 2K, 4K, 8K) — видео сверхвысокой чёткости [ 14.42 GB ] Первый мститель: Противостояние / Captain America: Civil War [2016 UHD BDRip 2160p] DUB [] sheker187 Скачать
1 | 0
Ultra HD (UHD: 2K, 4K, 8K) — видео сверхвысокой чёткости [ 58.4 GB ] Первый мститель: Противостояние / Captain America: Civil War [2016 UHD BDRemux 2160p] DUB +AVO+MVO bober100 Скачать
1 | 0
Фильмы (HD 720p, 1080p) (48-60 fps) [ 8.35 GB ] Первый мститель: Противостояние / Captain America: Civil War [2016 BDRip 720p 60 fps от еnvy / NNNB] DUB | еnvy Скачать
6 | 0
3D Фильмы [ 18.31 GB ] Первый мститель: Противостояние в 3D / Captain America: Civil War 3D [2016 3D BDRip 1080р] DUB / Half OverUnder sheker187 Скачать
1 | 0
Фильмы (HD 720p, 1080p) (48-60 fps) [ 6.77 GB ] Первый мститель: Противостояние / Captain America: Civil War [2016 BDRip - HEVC 1080p 12 bit 60 FPS] DUB dd2d3 Скачать
2 | 0

28-11-2019 20:33  

Отключить всю рекламу на сайте

    Дорогой пользователь! Огромная просьба, поблагодарите релизера, оцените раздачу и оставьте свои комментарий, если Вы скачали Первый мститель: Противостояние через торрент бесплатно! Внесите свою лепту в развитие PiratBit!
    Комментировать посты могут только пользователи прошедшие не сложную регистрацию
    Показать сообщения:    

    Первый мститель: Противостояние через торрент
    Скачать бесплатно Первый мститель: Противостояние
    Первый мститель: Противостояние скачать торрент
    Первый мститель: Противостояние смотреть онлайн
    Cкачать фильм Первый мститель: Противостояние бесплатно
    Первый мститель: Противостояние скачать торрент в хорошем качестве
    Первый мститель: Противостояние смотреть онлайн бесплатно в хорошем качестве


    Вы не можете начинать темы
    Вы не можете отвечать на сообщения
    Вы не можете редактировать свои сообщения
    Вы не можете удалять свои сообщения
    Вы не можете голосовать в опросах
    Вы не можете прикреплять файлы к сообщениям
    Вы можете скачивать файлы