MEGA SALE -75% Borderlands 3 Super Deluxe всего за 550р. 180 руб. (супер цена). Внимание количество ограничено!!!

iTunes

1+1

iTunes

мы

iTunes

1

iTunes

Чернобыль

iTunes

Ральф против интернета

Лицензия

ПШазам

Лицензия

Игра престолов

Лицензия

30
pack

ВАЖНО

!!Акция!!

Alien_RageХит недели

RePack

Resident Evil 21

ИГРА 18+

pack

RePack

Metro:Exodus

!!Акция!!

Alien_Rage

RePack

fifa19

RePack

Assassins Creed: Odyssey

RePack

NEED FOR SPEED™ PAYBACK

3 сезон

9 сезон

Бесстыжие 9 сезон

Все сериалы

все сериалы на PB.wtf

RePack

FAR CRY 5
Ребята, катастрофически не хватает 1900р. для оплаты серверов за АВГУСТ (всвязи с блокировками трафик упал в 3 раза), 1-2р., выручайте.
  

Рок-волна / The Boat That Rocked (Ричард Кёртис) [2009, драма, комедия, музыка, BDRip 1080p by msltel] DUB pb.wtf

Рок-волна через торрент pb.wtf

Размер: 15.02 GB | Добавлен: 2 года 10 мес. назад | Торрент скачан:43 раза
Скачать  

05-12-2016 11:25 Рок-волна Скачать торрент  

Название: Рок-волна
Оригинальное название: The Boat That Rocked
Год выпуска: 2009
Страна: Великобритания, Германия, Франция
Жанр: драма, комедия, музыка
Продолжительность: 02:15:09
Перевод: дублированный

Режиссёр: Ричард Кёртис

В ролях: Билл Найи, Кеннет Брана, Филип Сеймур Хоффман, Ник Фрост, Том Старридж, Рис Иванс, Риз Дэрби, Том Брук, Джемма Артертон, Айк Хэмилтон, Крис О`Дауд, Талула Райли, Том Уисдом, Уилл Адамсдэйл, Ральф Браун, Оливия Ллевелин, Джек Девенпорт, Дженьюэри Джонс, Аманда Фейрбэнк-Хайнс, Кэтрин Паркинсон, Стивен Мур, Олег Фёдоров, Дора Клуттик, Лана Дэвидсон

Описание: История о диджеях британского пиратского радиошоу 60-х. Англия. 1966 год. Рок-н-ролл звучит по радио лишь два часа в неделю. А в четырёх милях от берега группа отчаянных диджеев крутит запретную музыку сутки напролёт. Поклонники называют их национальными героями. Аудитория превышает 20 миллионов человек. Но правительство считает их врагами. Чиновники любыми силами стараются прекратить вещание. Радиопиратам приходится выбирать - бежать или наплевать на закон и ждать последствий...



Качество: BDRip 1080p Сравнение с исходником
Формат: MKV
Видео: MPEG-4 AVC, 14 Mбит/с, 1920x814, 23,976 кадра/с
Аудио 1: русский, AC3, 384 kbps, 6 ch, 48 kHz [дублированный, лицензия]
Аудио 2: английский, DTS, 1509 kbps, 6 ch, 48 kHz [оригинал]
Субтитры: английские (для слабослышащих)
Имеются неименованные главы/чаптеры.
Общее
Уникальный идентификатор : 201537616635119184888692976817783281320 (0x979EBBAB1E2B25C78AB048E07A6D96A8)
Полное имя : D:\Video\Рок-волна.2009.BDRip.1080p by msltel.mkv
Формат : Matroska
Версия формата : Version 4 / Version 2
Размер файла : 15,0 Гбайт
Продолжительность : 2 ч. 15 м.
Общий поток : 15,9 Мбит/сек
Название фильма : Rip by msltel
Дата кодирования : UTC 2016-12-05 06:04:29
Программа кодирования : mkvmerge v8.2.0 ('World of Adventure') 64bit
Библиотека кодирования : libebml v1.3.1 + libmatroska v1.4.2

Видео
Идентификатор : 1
Формат : AVC
Формат/Информация : Advanced Video Codec
Профиль формата : High@L4.1
Параметр CABAC формата : Да
Параметр ReFrames формата : 4 кадра
Идентификатор кодека : V_MPEG4/ISO/AVC
Продолжительность : 2 ч. 15 м.
Битрейт : 14,0 Мбит/сек
Ширина : 1920 пикселей
Высота : 814 пикселей
Соотношение сторон : 2,35:1
Режим частоты кадров : Постоянный
Частота кадров : 23,976 (24000/1001) кадра/сек
Цветовое пространство : YUV
Субдискретизация насыщенности : 4:2:0
Битовая глубина : 8 бит
Тип развёртки : Прогрессивная
Бит/(Пиксели*Кадры) : 0.374
Размер потока : 13,2 Гбайт (88%)
Библиотека кодирования : x264 core 146 r2538 121396c
Настройки программы : cabac=1 / ref=4 / deblock=1:-1:-1 / analyse=0x3:0x113 / me=umh / subme=9 / psy=1 / psy_rd=1.00:0.15 / mixed_ref=1 / me_range=32 / chroma_me=1 / trellis=1 / 8x8dct=1 / cqm=0 / deadzone=21,11 / fast_pskip=0 / chroma_qp_offset=-3 / threads=6 / lookahead_threads=1 / sliced_threads=0 / nr=0 / decimate=1 / interlaced=0 / bluray_compat=0 / constrained_intra=0 / bframes=13 / b_pyramid=2 / b_adapt=2 / b_bias=0 / direct=1 / weightb=0 / open_gop=0 / weightp=2 / keyint=230 / keyint_min=23 / scenecut=40 / intra_refresh=0 / rc_lookahead=40 / rc=crf / mbtree=0 / crf=18.8 / qcomp=0.60 / qpmin=0 / qpmax=69 / qpstep=4 / vbv_maxrate=50000 / vbv_bufsize=62500 / crf_max=0.0 / nal_hrd=none / filler=0 / ip_ratio=1.40 / pb_ratio=1.30 / aq=1:1.00
Язык : English
Default : Да
Forced : Нет

Аудио #1
Идентификатор : 2
Формат : AC-3
Формат/Информация : Audio Coding 3
Расширение режима : CM (complete main)
Параметр Endianness формата : Big
Идентификатор кодека : A_AC3
Продолжительность : 2 ч. 15 м.
Вид битрейта : Постоянный
Битрейт : 384 Кбит/сек
Каналы : 6 каналов
Расположение каналов : Front: L C R, Side: L R, LFE
Частота : 48,0 КГц
Частота кадров : 31,250 кадров/сек (1536 spf)
Метод сжатия : С потерями
Размер потока : 371 Мбайт (2%)
Заголовок : DUB (лицензия)
Язык : Russian
Default : Да
Forced : Нет

Аудио #2
Идентификатор : 3
Формат : DTS
Формат/Информация : Digital Theater Systems
Режим : 16
Параметр Endianness формата : Big
Идентификатор кодека : A_DTS
Продолжительность : 2 ч. 15 м.
Вид битрейта : Постоянный
Битрейт : 1509 Кбит/сек
Каналы : 6 каналов
Расположение каналов : Front: L C R, Side: L R, LFE
Частота : 48,0 КГц
Частота кадров : 93,750 кадра/сек (512 spf)
Битовая глубина : 24 бит
Метод сжатия : С потерями
Размер потока : 1,42 Гбайт (9%)
Заголовок : original
Язык : English
Default : Нет
Forced : Нет

Текст
Идентификатор : 4
Формат : UTF-8
Идентификатор кодека : S_TEXT/UTF8
Идентификатор кодека/Информация : UTF-8 Plain Text
Продолжительность : 2 ч. 14 м.
Битрейт : 60 бит/сек
Count of elements : 1758
Размер потока : 59,5 Кбайт (0%)
Заголовок : английские (для слабослышащих)
Язык : English
Default : Нет
Forced : Нет

Меню
00:00:00.000 : :Chapter 01
00:05:00.000 : :Chapter 02
00:10:00.000 : :Chapter 03
00:15:00.000 : :Chapter 04
00:20:00.000 : :Chapter 05
00:25:00.000 : :Chapter 06
00:30:00.000 : :Chapter 07
00:35:00.000 : :Chapter 08
00:40:00.000 : :Chapter 09
00:45:00.000 : :Chapter 10
00:50:00.000 : :Chapter 11
00:55:00.000 : :Chapter 12
01:00:00.000 : :Chapter 13
01:05:00.000 : :Chapter 14
01:10:00.000 : :Chapter 15
01:15:00.000 : :Chapter 16
01:20:00.000 : :Chapter 17
01:25:00.000 : :Chapter 18
01:30:00.000 : :Chapter 19
01:35:00.000 : :Chapter 20
01:40:00.000 : :Chapter 21
01:45:00.000 : :Chapter 22
01:50:00.000 : :Chapter 23
01:55:00.000 : :Chapter 24
02:00:00.000 : :Chapter 25
02:05:00.000 : :Chapter 26
02:10:00.000 : :Chapter 27
02:15:00.000 : :Chapter 28

ВКОНТАКТЕpb.wtf



Скачать Рок-волна через торрент http://s017.radikal.ru/i427/1612/1b/d06cbb6e1a27.jpg Скачать фильм Рок-волна через торрент бесплантно в хорошем качестве Описание: История о диджеях британского пиратского радиошоу 60-х. Англия. 1966 год. Рок-н-ролл звучит по радио лишь два часа в неделю. А в ... 10 10 2
Info! Золотая раздача, скачанное не засчитывается.
Торрент: Зарегистрирован [2016-12-05 11:25] · скачан: 43 раз
Статус: √ проверено
Размер: 15.02 GB
Как cкачать? Как скачать Рок-волна через торрент | qTorrent

% Раздел Тема Автор DL S | L
Фильмы [HD 720p, 1080p] (Хороший звук DUB, MVO) [ 5.39 GB ] Рок-волна / The Boat That Rocked [2009 музыка BDRip 720p by msltel] DUB msltel Скачать
1 | 0
Фильмы 2009 [ 1.45 GB ] Рок-волна / The Boat That Rocked [2009 музыка HDRip DUB лицензия] Zemlya Скачать
2 | 0
Фильмы 2009 [ 2.05 GB ] Рок-волна / The Boat That Rocked [2009 HDRip] DUB+original paul08 Скачать
1 | 0


>> Регистрируемся здесь <<






Отзывы и комментарии о схеме читаем и пишем здесь: ---> Отзывы и комментарии о схеме

Новые благодарочки в телеграм довольных пользователей:
скриншот   скриншот   скриншот   скриншот   скриншот
    Дорогой пользователь! Огромная просьба, поблагодарите релизера, оцените раздачу и оставьте свои комментарий, если Вы скачали Рок-волна через торрент бесплатно! Внесите свою лепту в развитие PiratBit!
    Комментировать посты могут только пользователи прошедшие не сложную регистрацию
    Показать сообщения:    

    Рок-волна через торрент
    Скачать бесплатно Рок-волна
    Рок-волна скачать торрент
    Рок-волна смотреть онлайн
    Cкачать фильм Рок-волна бесплатно
    Рок-волна скачать торрент в хорошем качестве
    Рок-волна смотреть онлайн бесплатно в хорошем качестве


    Вы не можете начинать темы
    Вы не можете отвечать на сообщения
    Вы не можете редактировать свои сообщения
    Вы не можете удалять свои сообщения
    Вы не можете голосовать в опросах
    Вы не можете прикреплять файлы к сообщениям
    Вы можете скачивать файлы