Ссылка на приватное зеркало нашего сайта всего за 1$. Внимание количество ограничено!!!

2 сезон

iTunes

1 сезон

1

2 сезон

2 сезон

iTunes

1 сезон

RePack

30

Ultimate

ВАЖНО

ИГРА 18+

pack

RePack

MK11
pack

Забери бонус

RePack

jed

!!Акция!!

Alien_Rage

RePack

fifa19

RePack

Assassins Creed: Odyssey

RePack

NEED FOR SPEED™ PAYBACK

4 сезон

9 сезон

Бесстыжие 9 сезон

Все сериалы

все сериалы на PB.wtf

RePack

FAR CRY 5
  

Большой и добрый великан / The BFG (Стивен Спилберг) [2016, Фэнтези, экранизация, приключения, семейный, BDRemux 1080р от ExKinoRay] iTunes pb.wtf

Большой и добрый великан через торрент pb.wtf

Размер: 25.21 GB | Добавлен: 3 года 11 мес. назад | Торрент скачан:172 раза
Скачать  

06-12-2016 02:58 Большой и добрый великан Скачать торрент  

Информация о фильме
Название: Большой и добрый великан
Оригинальное название: The BFG
Год выхода: 2016
Жанр: Фэнтези, экранизация, приключения, семейный
Страна: Великобритания, Канада, США
Студия: Amblin Entertainment, DreamWorks SKG, Reliance Entertainment
Продолжительность: 01:57:06
Перевод: Дублированный | iTunes
Субтитры: Русские (форсированные), английские

Режиссер: Стивен Спилберг

В ролях: Марк Райлэнс, Руби Барнхилл, Пенелопа Уилтон, Джемейн Клемент, Ребекка Холл, Рейф Сполл, Билл Хейдер, Оулавюр Дарри Оулафссон, Адам Годли, Майкл Адамуэйт

О фильме:

В центре истории девочка по имени Софи, которая не смогла заснуть до полуночи и в окошко увидела огромного великана, который подходил к соседним домам и начинал дуть в окна спален. В полном соответствии со старинными поверьями и детскими страшилками, великан увидел Софи и унес к себе домой, в страну великанов.

rating

Качество: BDRemux 1080p
Формат: MKV
Видео: MPEG-4, 1920x1080, 25.8 Mbit/s, 23.976 fps
Аудио #01: 48 kHz, AC3, 5.1, 384 Kbps | Дублированный |
Аудио #02: 48 kHz, TrueHD, 7.1, 4583 kbps | Оригинал |

General

Unique ID : 231444262498512340079773211750544661205 (0xAE1E8B26C3BB2B3D9863687CB3BB5AD5)

Complete name : G:VideoThe.BFG.2016.D.BDREMUX.1080p.ExKinoRay.mkv

Format : Matroska

Format version : Version 4 / Version 2

File size : 25.2 GiB

Duration : 1 h 57 min

Overall bit rate mode : Variable

Overall bit rate : 30.8 Mb/s

Movie name : The.BFG.2016. build by ***селезень***

Encoded date : UTC 2016-12-05 20:34:17

Writing application : mkvmerge v8.3.0 ('Over the Horizon') 64bit

Writing library : libebml v1.3.1 + libmatroska v1.4.2

Video

ID : 1

Format : AVC

Format/Info : Advanced Video Codec

Format profile : High@L4.1

Format settings, CABAC : Yes

Format settings, ReFrames : 4 frames

Codec ID : V_MPEG4/ISO/AVC

Duration : 1 h 57 min

Bit rate mode : Variable

Bit rate : 25.8 Mb/s

Maximum bit rate : 28.0 Mb/s

Width : 1 920 pixels

Height : 1 080 pixels

Display aspect ratio : 16:9

Frame rate mode : Constant

Frame rate : 23.976 (24000/1001) FPS

Color space : YUV

Chroma subsampling : 4:2:0

Bit depth : 8 bits

Scan type : Progressive

Bits/(Pixel*Frame) : 0.519

Stream size : 21.1 GiB (84%)

Title : The.BFG.2016. build by ***селезень***

Language : English

Default : Yes

Forced : No

Audio #1

ID : 2

Format : AC-3

Format/Info : Audio Coding 3

Mode extension : CM (complete main)

Format settings, Endianness : Big

Codec ID : A_AC3

Duration : 1 h 57 min

Bit rate mode : Constant

Bit rate : 384 kb/s

Channel(s) : 6 channels

Channel positions : Front: L C R, Side: L R, LFE

Sampling rate : 48.0 kHz

Frame rate : 31.250 FPS (1536 spf)

Bit depth : 16 bits

Compression mode : Lossy

Delay relative to video : 32 ms

Stream size : 322 MiB (1%)

Title : iTunes

Language : Russian

Default : Yes

Forced : No

Audio #2

ID : 3

Format : Atmos / TrueHD

Codec ID : A_TRUEHD

Duration : 1 h 57 min

Bit rate mode : Variable

Bit rate : 4 583 kb/s

Maximum bit rate : 7 287 kb/s

Channel(s) : Object Based / 8 channels

Channel positions : Object Based / Front: L C R, Side: L R, Back: L R, LFE

Sampling rate : / 48.0 kHz

Frame rate : 1 200.000 FPS (40 spf)

Compression mode : Lossless

Stream size : 3.75 GiB (15%)

Title : Original

Language : English

Default : No

Forced : No

Text #1

ID : 4

Format : UTF-8

Codec ID : S_TEXT/UTF8

Codec ID/Info : UTF-8 Plain Text

Duration : 1 h 48 min

Bit rate : 0 b/s

Count of elements : 8

Stream size : 363 Bytes (0%)

Title : Forced

Language : Russian

Default : Yes

Forced : No

Text #2

ID : 5

Format : UTF-8

Codec ID : S_TEXT/UTF8

Codec ID/Info : UTF-8 Plain Text

Duration : 1 h 45 min

Bit rate : 32 b/s

Count of elements : 928

Stream size : 24.8 KiB (0%)

Title : Full

Language : English

Default : No

Forced : No

Text #3

ID : 6

Format : UTF-8

Codec ID : S_TEXT/UTF8

Codec ID/Info : UTF-8 Plain Text

Duration : 1 h 47 min

Bit rate : 37 b/s

Count of elements : 1205

Stream size : 29.9 KiB (0%)

Title : SDH

Language : English

Default : No

Forced : No

Menu

00:00:00.000 : en:00:00:00.000

00:03:33.463 : en:00:03:33.463

00:08:02.732 : en:00:08:02.732

00:14:05.178 : en:00:14:05.178

00:19:45.851 : en:00:19:45.851

00:24:50.030 : en:00:24:50.030

00:28:29.541 : en:00:28:29.541

00:33:33.094 : en:00:33:33.094

00:36:51.418 : en:00:36:51.418

00:41:04.295 : en:00:41:04.295

00:45:48.245 : en:00:45:48.245

00:51:52.401 : en:00:51:52.401

00:57:36.662 : en:00:57:36.662

01:03:46.239 : en:01:03:46.239

01:13:41.917 : en:01:13:41.917

01:21:54.701 : en:01:21:54.701
скриншот  скриншот  скриншот  
Релиз от: Автор релиза: pb.wtf



Скачать Большой и добрый великан через торрент http://s019.radikal.ru/i644/1611/c0/60803ebf947e.jpg Скачать фильм Большой и добрый великан через торрент бесплантно в хорошем качестве О фильме:В центре истории девочка по имени Софи, которая не смогла заснуть до полуночи и в окошко увидела огромного великана, который ... 9.6 10 8
Info! Золотая раздача, скачанное не засчитывается.
Торрент: Зарегистрирован [2016-12-06 02:58] · скачан: 172 раз
Статус: √ проверено
Размер: 25.21 GB
Как cкачать? Как скачать Большой и добрый великан через торрент | qTorrent

% Раздел Тема Автор DL S | L
Фильмы [HD 720p, 1080p] (Хороший звук DUB, MVO) [ 11.31 GB ] Большой и добрый великан / The BFG [2016 BDRip 1080p] - sheker187 Скачать
1 | 0
R.G. Resident & PiratVoice - Фильмы, Видео [ 3.03 GB ] Большой и добрый великан / The BFG [2016 BDRip-AVC] - R.G.Resident schultz Скачать
1 | 0
Фильмы 2016 [DVDrip, WEB-DLRip, HDrip] (DUB, MVO) [ 2.13 GB ] Большой и добрый великан / The BFG [2016 BDRip] - Twi7ter Скачать
1 | 0
R.G. Resident & PiratVoice - Фильмы, Видео [ 4.28 GB ] Большой и добрый великан / The BFG [2016 BDRip 720p] - R.G.Resident schultz Скачать
1 | 0
Фильмы 2016 [DVDrip, WEB-DLRip, HDrip] (DUB, MVO) [ 743 MB ] Большой и добрый великан / The BFG [2016 HDRip by _Один_777] Dub () Один 777 Скачать
1 | 0
Фильмы 2016 [DVDrip, WEB-DLRip, HDrip] (DUB, MVO) [ 1.46 GB ] Большой и добрый великан / The BFG [2016 HDRip by _Один_777] Dub () Один 777 Скачать
1 | 0
3D Фильмы [ 8.04 GB ] Большой и Добрый Великан в 3D / The BFG 3D [2016 3D BDRip 1080p] / Half OverUnder sheker187 Скачать
1 | 0

28-11-2019 20:33  

Отключить всю рекламу на сайте

    Дорогой пользователь! Огромная просьба, поблагодарите релизера, оцените раздачу и оставьте свои комментарий, если Вы скачали Большой и добрый великан через торрент бесплатно! Внесите свою лепту в развитие PiratBit!
    Комментировать посты могут только пользователи прошедшие не сложную регистрацию
    Показать сообщения:    

    Большой и добрый великан через торрент
    Скачать бесплатно Большой и добрый великан
    Большой и добрый великан скачать торрент
    Большой и добрый великан смотреть онлайн
    Cкачать фильм Большой и добрый великан бесплатно
    Большой и добрый великан скачать торрент в хорошем качестве
    Большой и добрый великан смотреть онлайн бесплатно в хорошем качестве


    Вы не можете начинать темы
    Вы не можете отвечать на сообщения
    Вы не можете редактировать свои сообщения
    Вы не можете удалять свои сообщения
    Вы не можете голосовать в опросах
    Вы не можете прикреплять файлы к сообщениям
    Вы можете скачивать файлы