Ссылка на приватное зеркало нашего сайта всего за 1$. Внимание количество ограничено!!!

2 сезон

iTunes

1 сезон

1

iTunes

iTunes

iTunes

1 сезон

RePack

30

ИГРА 18+

pack

ВАЖНО

!!Акция!!

Alien_RageХит недели

RePack

MK11
pack

Забери бонус

RePack

jed

!!Акция!!

Alien_Rage

RePack

fifa19

RePack

Assassins Creed: Odyssey

RePack

NEED FOR SPEED™ PAYBACK

4 сезон

9 сезон

Бесстыжие 9 сезон

Все сериалы

все сериалы на PB.wtf

RePack

FAR CRY 5
  

Отмель / The Shallows (Хауме Кольет-Серра ) [2016, ужасы, триллер, драма, BDRip 720p от potroks] Dub [Лицензия] pb.wtf

Отмель через торрент pb.wtf

Размер: 5.75 GB | Добавлен: 3 года 10 мес. назад | Торрент скачан:168 раз
Скачать  

06-12-2016 05:57 Отмель Скачать торрент  

Отмель / The Shallows

Год выпуска: 2016
Страна: США / Columbia Pictures, Ombra Films....
Жанр: ужасы, триллер, драма
Продолжительность: 01:26:16
Перевод: Дубляж [Blu-ray EUR]
Субтитры: русские (полные + форс.), английские (Forced + Full + SDH)
Навигация по главам: есть
Режиссер: Хауме Кольет-Серра
В ролях:

Блейк Лайвли (Nancy), Оскар Хаэнада (Carlos), Анджело Джосу Лозаньо Корзо (Surfer 1), Бретт Каллен (Dad), Седона Ледже (Chloe), Пабло Кальва (Boy), Диего Эспехель (Intoxicated Man), Джанелл Бэйли (Mom), Ава Дин (Young Nancy), Челси Муди (Young Mom), Салли Сигалл (Seagull)
Описание: Бескрайний океан, безлюдный пляж и идеальная погода для серфингистов в поисках хорошей волны. Казалось бы, ничто не предвещает беды для очаровательной любительницы серфинга в одиночку. Разве что свидание тет-а-тет с гигантской акулой, которая загонит спортсменку на песчаную отмель и не отступит до тех пор, пока не получит своё.

Качество: BDRip 720p
Формат: MKV
Видео: AVC, 1280x534 (2.40:1), 8279 kbps, 23,976 fps, 0,505 bpp
Аудио №1: AC3 / 5.1 / 48 kHz / 640 kbps / 16 bit | RUS
Аудио №2: AC3 / 5.1 / 48 kHz / 640 kbps / 16 bit | ENG
General
Unique ID : 195629710000891923250522729541593297703 (0x932CE961E92CF1FDB996FF199DCD7327)
Complete name : F:\Ужасы\Otmel.2016.DUAL.BDRip.720p.-HELLYWOOD.mkv
Format : Matroska
Format version : Version 4 / Version 2
File size : 5.75 GiB
Duration : 1 h 26 min
Overall bit rate : 9 535 kb/s
Movie name : The Shallows.(2016)
Encoded date : UTC 2016-12-06 03:28:09
Writing application : mkvmerge v5.9.0 ('On The Loose') built on Dec 15 2012 16:39:58
Writing library : libebml v1.3.0 + libmatroska v1.4.0

Video
ID : 1
Format : AVC
Format/Info : Advanced Video Codec
Format profile : High@L4.1
Format settings, CABAC : Yes
Format settings, ReFrames : 9 frames
Codec ID : V_MPEG4/ISO/AVC
Duration : 1 h 26 min
Bit rate : 8 279 kb/s
Width : 1 280 pixels
Height : 534 pixels
Display aspect ratio : 2.40:1
Frame rate mode : Constant
Frame rate : 23.976 FPS
Color space : YUV
Chroma subsampling : 4:2:0
Bit depth : 8 bits
Scan type : Progressive
Bits/(Pixel*Frame) : 0.505
Stream size : 4.86 GiB (85%)
Title : potroks
Writing library : x264 core 146 r2538 121396c
Encoding settings : cabac=1 / ref=9 / deblock=1:-2:-2 / analyse=0x3:0x113 / me=umh / subme=11 / psy=1 / psy_rd=1.00:0.05 / mixed_ref=1 / me_range=48 / chroma_me=1 / trellis=2 / 8x8dct=1 / cqm=0 / deadzone=21,11 / fast_pskip=0 / chroma_qp_offset=-3 / threads=9 / lookahead_threads=2 / sliced_threads=0 / nr=0 / decimate=1 / interlaced=0 / bluray_compat=0 / constrained_intra=0 / bframes=11 / b_pyramid=2 / b_adapt=2 / b_bias=0 / direct=3 / weightb=1 / open_gop=0 / weightp=2 / keyint=240 / keyint_min=23 / scenecut=40 / intra_refresh=0 / rc_lookahead=60 / rc=2pass / mbtree=0 / bitrate=8279 / ratetol=1.0 / qcomp=0.70 / qpmin=0 / qpmax=69 / qpstep=4 / cplxblur=20.0 / qblur=0.5 / vbv_maxrate=14000 / vbv_bufsize=14000 / nal_hrd=none / filler=0 / ip_ratio=1.40 / pb_ratio=1.30 / aq=1:0.70
Language : English
Default : Yes
Forced : No

Audio #1
ID : 2
Format : AC-3
Format/Info : Audio Coding 3
Mode extension : CM (complete main)
Format settings, Endianness : Big
Codec ID : A_AC3
Duration : 1 h 26 min
Bit rate mode : Constant
Bit rate : 640 kb/s
Channel(s) : 6 channels
Channel positions : Front: L C R, Side: L R, LFE
Sampling rate : 48.0 kHz
Frame rate : 31.250 FPS (1536 spf)
Compression mode : Lossy
Stream size : 395 MiB (7%)
Title : Dub | DD 5.1 @ 640 kbps - Blu-ray EUR
Language : Russian
Default : Yes
Forced : No

Audio #2
ID : 3
Format : AC-3
Format/Info : Audio Coding 3
Mode extension : CM (complete main)
Format settings, Endianness : Big
Codec ID : A_AC3
Duration : 1 h 26 min
Bit rate mode : Constant
Bit rate : 640 kb/s
Channel(s) : 6 channels
Channel positions : Front: L C R, Side: L R, LFE
Sampling rate : 48.0 kHz
Frame rate : 31.250 FPS (1536 spf)
Compression mode : Lossy
Stream size : 395 MiB (7%)
Title : Original | DD 5.1 @ 640 kbps
Language : English
Default : No
Forced : No

Text #1
ID : 4
Format : UTF-8
Codec ID : S_TEXT/UTF8
Codec ID/Info : UTF-8 Plain Text
Title : Forced
Language : Russian
Default : Yes
Forced : No

Text #2
ID : 5
Format : UTF-8
Codec ID : S_TEXT/UTF8
Codec ID/Info : UTF-8 Plain Text
Title : iTunes
Language : Russian
Default : No
Forced : No

Text #3
ID : 6
Format : UTF-8
Codec ID : S_TEXT/UTF8
Codec ID/Info : UTF-8 Plain Text
Title : Forced
Language : English
Default : No
Forced : No

Text #4
ID : 7
Format : UTF-8
Codec ID : S_TEXT/UTF8
Codec ID/Info : UTF-8 Plain Text
Title : Full
Language : English
Default : No
Forced : No

Text #5
ID : 8
Format : UTF-8
Codec ID : S_TEXT/UTF8
Codec ID/Info : UTF-8 Plain Text
Title : SDH
Language : English
Default : No
Forced : No

Menu
00:00:00.000 : en:Chapter 1
00:08:09.697 : en:Chapter 2
00:15:10.407 : en:Chapter 3
00:20:31.939 : en:Chapter 4
00:25:45.876 : en:Chapter 5
00:30:07.055 : en:Chapter 6
00:36:04.118 : en:Chapter 7
00:40:39.685 : en:Chapter 8
00:45:41.611 : en:Chapter 9
00:49:32.219 : en:Chapter 10
00:55:57.977 : en:Chapter 11
01:01:21.510 : en:Chapter 12
01:06:22.561 : en:Chapter 13
01:09:57.443 : en:Chapter 14
01:13:38.704 : en:Chapter 15
01:19:01.485 : en:Chapter 16
pb.wtf



Скачать Отмель через торрент http://i83.fastpic.ru/big/2016/1206/b7/7802e90aad0a53ac140738b89144f7b7.png Скачать фильм Отмель через торрент бесплантно в хорошем качестве Описание: Бескрайний океан, безлюдный пляж и идеальная погода для серфингистов в поисках хорошей волны. Казалось бы, ничто не предвещает ... 8 10 7
Info! Золотая раздача, скачанное не засчитывается.
Торрент: Зарегистрирован [2016-12-06 05:57] · скачан: 168 раз
Статус: √ проверено
Размер: 5.75 GB
Как cкачать? Как скачать Отмель через торрент | qTorrent

% Раздел Тема Автор DL S | L
Фильмы [HD 720p, 1080p] (Хороший звук DUB, MVO) [ 9.91 GB ] Отмель / The Shallows [2016 BDRip 1080p] DUB [] bober100 Скачать
1 | 0
Ultra HD (UHD: 2K, 4K, 8K) — видео сверхвысокой чёткости [ 42.53 GB ] Отмель / The Shallows [2016 UHD BDRemux 2160p] DUB + AVO sheker187 Скачать
1 | 0
Ultra HD (UHD: 2K, 4K, 8K) — видео сверхвысокой чёткости [ 49.01 GB ] Отмель / The Shallows [2016 UHD Blu-Ray 2160p] DUB [ EUR] bober100 Скачать
1 | 0
Ultra HD (UHD: 2K, 4K, 8K) — видео сверхвысокой чёткости [ 37.59 GB ] Отмель / The Shallows [2016 UHD WEBRip 2160p] DUB [] bober100 Скачать
1 | 1
Фильмы 2016 [DVDrip, WEB-DLRip, HDrip] (DUB, MVO) [ 1.46 GB ] Отмель / The Shallows [2016 BDRip] - [] Twi7ter Скачать
1 | 0
Фильмы (HD 720p, 1080p) (48-60 fps) [ 4.53 GB ] Отмель / The Shallows [2016 BDRip 720p 60 fps от еnvy / NNNB] DUB еnvy Скачать
6 | 0
Фильмы (Blu-ray, BD-Remux, HDDVD) [ 26.28 GB ] Отмель / The Shallows [2016 Blu-Ray EUR 1080p] Russian Mafia Скачать
1 | 0

28-11-2019 20:33  

Отключить всю рекламу на сайте

    Дорогой пользователь! Огромная просьба, поблагодарите релизера, оцените раздачу и оставьте свои комментарий, если Вы скачали Отмель через торрент бесплатно! Внесите свою лепту в развитие PiratBit!
    Комментировать посты могут только пользователи прошедшие не сложную регистрацию
    Показать сообщения:    

    Отмель через торрент
    Скачать бесплатно Отмель
    Отмель скачать торрент
    Отмель смотреть онлайн
    Cкачать фильм Отмель бесплатно
    Отмель скачать торрент в хорошем качестве
    Отмель смотреть онлайн бесплатно в хорошем качестве


    Вы не можете начинать темы
    Вы не можете отвечать на сообщения
    Вы не можете редактировать свои сообщения
    Вы не можете удалять свои сообщения
    Вы не можете голосовать в опросах
    Вы не можете прикреплять файлы к сообщениям
    Вы можете скачивать файлы