Ссылка на приватное зеркало нашего сайта всего за 1$. Внимание количество ограничено!!!

2 сезон

iTunes

1 сезон

1

2 сезон

2 сезон

iTunes

1 сезон

RePack

30

Новинка

ВАЖНО

ИГРА 18+

pack

RePack

MK11
pack

Забери бонус

RePack

jed

!!Акция!!

Alien_Rage

RePack

fifa19

RePack

Assassins Creed: Odyssey

RePack

NEED FOR SPEED™ PAYBACK

4 сезон

9 сезон

Бесстыжие 9 сезон

Все сериалы

все сериалы на PB.wtf

RePack

FAR CRY 5
  

Экстрасенсы / Solace (Афонсо Пойарт) [2015, Триллер, детектив, BDRemux 1080p от ExKinoRay] RUS-Transfer / Open Mate / Лицензия pb.wtf

Экстрасенсы через торрент pb.wtf

Размер: 16.38 GB | Добавлен: 3 года 11 мес. назад | Торрент скачан:107 раз
Скачать  

06-12-2016 16:31 Экстрасенсы Скачать торрент  

Информация о фильме
Название: Экстрасенсы
Оригинальное название: Solace
Год выхода: 2015
Жанр: Триллер, детектив
Страна: США
Студия: Eden Rock Media, FilmNation Entertainment, Flynn Picture Company
Продолжительность: 01:41:12
Перевод: Дублированный | Лицензия
Субтитры: Английские

Режиссер: Афонсо Пойарт

В ролях: Джеффри Дин Морган, Колин Фаррелл, Энтони Хопкинс, Эбби Корниш, Марли Шелтон, Джанин Тернер, Ксандер Беркли, Кенни Джонсон, Хосе Пабло Кантильо, Джошуа Клоуз

О фильме:

Напарники, Джо и Кэтрин, детективы из ФБР расследуют череду загадочных убийств. Все преступления объединяет нечто сверхъестественное - серийный убийца всегда на шаг впереди лучших сыщиков. Тогда на помощь правосудию приходит отставной аналитик спецслужб доктор Джон Кленси. Его исключительная интуиция и интеллект могут помочь поймать убийцу, но вскоре Джон понимает - его соперник значительно превосходит его в способностях.

rating

Качество: BDRemux 1080p
Формат: MKV
Видео: MPEG-4 AVC, 1920x1080, 18.7 Mbit/s, 24.000 fps
Аудио #1: 48.0 Khz, DTS-HD MA, 5.1, 3840 Kbps | Дублированный |
Аудио #2: 48.0 Khz, AC3, 5.1, 640 Kbps | Дублированный |
General

Unique ID : 214743454210660048481716690508473811187 (0xA18E15BADCCED4398AEFB44C885DC0F3)

Complete name : G:VideoSolace.2015.BDREMUX.1080p.ExKinoRay.mkv

Format : Matroska

Format version : Version 4 / Version 2

File size : 16.4 GiB

Duration : 1 h 41 min

Overall bit rate mode : Variable

Overall bit rate : 23.2 Mb/s

Movie name : Solace.2015 ***селезень***

Encoded date : UTC 2016-12-06 15:45:43

Writing application : mkvmerge v8.3.0 ('Over the Horizon') 64bit

Writing library : libebml v1.3.1 + libmatroska v1.4.2

Video

ID : 1

Format : AVC

Format/Info : Advanced Video Codec

Format profile : High@L4

Format settings, CABAC : Yes

Format settings, ReFrames : 2 frames

Format settings, GOP : M=2, N=13

Codec ID : V_MPEG4/ISO/AVC

Duration : 1 h 41 min

Bit rate mode : Variable

Bit rate : 18.7 Mb/s

Maximum bit rate : 22.0 Mb/s

Width : 1 920 pixels

Height : 1 080 pixels

Display aspect ratio : 16:9

Frame rate mode : Constant

Frame rate : 24.000 FPS

Color space : YUV

Chroma subsampling : 4:2:0

Bit depth : 8 bits

Scan type : Progressive

Bits/(Pixel*Frame) : 0.376

Stream size : 13.2 GiB (81%)

Title : Solace.2015 build by***селезень***

Language : English

Default : Yes

Forced : No

Audio #1

ID : 2

Format : DTS

Format/Info : Digital Theater Systems

Format profile : MA / Core

Mode : 16

Format settings, Endianness : Big

Codec ID : A_DTS

Duration : 1 h 41 min

Bit rate mode : Variable / Constant

Bit rate : 3 840 kb/s / 1 509 kb/s

Channel(s) : 6 channels

Channel positions : Front: L C R, Side: L R, LFE

Sampling rate : 48.0 kHz

Frame rate : 93.750 FPS (512 spf)

Bit depth : 24 bits

Compression mode : Lossless / Lossy

Stream size : 2.72 GiB (17%)

Title : Dub-DTS-HD MA [license]

Language : Russian

Default : Yes

Forced : No

Audio #2

ID : 3

Format : AC-3

Format/Info : Audio Coding 3

Mode extension : CM (complete main)

Format settings, Endianness : Big

Codec ID : A_AC3

Duration : 1 h 41 min

Bit rate mode : Constant

Bit rate : 640 kb/s

Channel(s) : 6 channels

Channel positions : Front: L C R, Side: L R, LFE

Sampling rate : 48.0 kHz

Frame rate : 31.250 FPS (1536 spf)

Bit depth : 16 bits

Compression mode : Lossy

Stream size : 463 MiB (3%)

Title : Dub-AC3 [license]

Language : Russian

Default : No

Forced : No

Menu

00:00:00.000 : en:Chapter 01

00:09:13.428 : en:Chapter 02

00:16:38.289 : en:Chapter 03

00:20:26.475 : en:Chapter 04

00:30:19.860 : en:Chapter 05

00:39:57.562 : en:Chapter 06

00:46:02.468 : en:Chapter 07

01:00:26.748 : en:Chapter 08

01:04:05.800 : en:Chapter 09

01:11:37.126 : en:Chapter 10

01:18:46.639 : en:Chapter 11

01:22:42.541 : en:Chapter 12
скриншот  скриншот  скриншот  скриншот  
Релиз от: Автор релиза: pb.wtf



Скачать Экстрасенсы через торрент http://s018.radikal.ru/i504/1612/eb/32e519268506.png Скачать фильм Экстрасенсы через торрент бесплантно в хорошем качестве О фильме:Напарники, Джо и Кэтрин, детективы из ФБР расследуют череду загадочных убийств. Все преступления объединяет нечто ... 10 10 9
Info! Золотая раздача, скачанное не засчитывается.
Торрент: Зарегистрирован [2016-12-06 16:31] · скачан: 107 раз
Статус: √ проверено
Размер: 16.38 GB
Как cкачать? Как скачать Экстрасенсы через торрент | qTorrent

28-11-2019 20:33  

Отключить всю рекламу на сайте

    Дорогой пользователь! Огромная просьба, поблагодарите релизера, оцените раздачу и оставьте свои комментарий, если Вы скачали Экстрасенсы через торрент бесплатно! Внесите свою лепту в развитие PiratBit!
    Комментировать посты могут только пользователи прошедшие не сложную регистрацию
    Показать сообщения:    

    Экстрасенсы через торрент
    Скачать бесплатно Экстрасенсы
    Экстрасенсы скачать торрент
    Экстрасенсы смотреть онлайн
    Cкачать фильм Экстрасенсы бесплатно
    Экстрасенсы скачать торрент в хорошем качестве
    Экстрасенсы смотреть онлайн бесплатно в хорошем качестве


    Вы не можете начинать темы
    Вы не можете отвечать на сообщения
    Вы не можете редактировать свои сообщения
    Вы не можете удалять свои сообщения
    Вы не можете голосовать в опросах
    Вы не можете прикреплять файлы к сообщениям
    Вы можете скачивать файлы