2 сезон

iTunes

1 сезон

1

iTunes

iTunes

iTunes

1 сезон

RePack

30

ИГРА 18+

pack

ВАЖНО

!!Акция!!

Alien_RageХит недели

RePack

MK11
pack

Забери бонус

RePack

jed

!!Акция!!

Alien_Rage

RePack

fifa19

RePack

Assassins Creed: Odyssey

RePack

NEED FOR SPEED™ PAYBACK

4 сезон

9 сезон

Бесстыжие 9 сезон

Все сериалы

все сериалы на PB.wtf

RePack

FAR CRY 5
  

Обратная сторона Луны-2 / Серии: 1-8 из 16 (Александр Котт) [2016, фантастика, триллер, SATRip-AVC] pb.wtf

Обратная сторона Луны-2 через торрент pb.wtf

Размер: 4.56 GB | Добавлен: 3 года 10 мес. назад | Торрент скачан:79 раз
Скачать  

06-12-2016 21:50 Обратная сторона Луны-2 Скачать торрент  

Обратная сторона Луны-2

Год выпуска: 2016
Производство: Россия, Продюсерский центр «Среда».
Жанр: фантастика, триллер
Продолжительность: 00:53:00
Субтитры: нет



Режиссёр: Александр Котт



В ролях: Павел Деревянко, Светлана Смирнова-Марцинкевич, Иван Шибанов, Анатолий Горячев, Михаил Грубов, Сергей Карякин, Дмитрий Горевой, Максим Виторган, Алёна Константинова, Сергей Петров (II), Юрий Голайдо, Сергей Галахов, Арсений Кудряшов, Игорь Денисов, Ирина Марцинкевич, Владимир Симонов, Ирина Основина, Валентин Самохин, Маргарита Исайкова, Юрий Нифонтов, Арсений Перель, Григорий Перель, Михаил Горевой, Галина Звягинцева, Дмитрий Муляр, Пётр Кудряшов
Описание: Куда на этот раз забросит судьба Михаила Соловьева? Каким временем или параллельной реальностью продюсеры и авторы второго сезона удивят зрителя? Одно можно сказать с уверенностью: в этом сезоне капитан Соловьев еще раз попробует поймать неуловимого рыжего маньяка, прорвавшегося с ним в это время, и постарается найти свое время. Ведь времена не выбирают, в них живут и умирают.



Релиз от:

Качество: SATRip-AVC
Формат: MKV
Видео кодек: H.264
Аудио кодек: AC3
Видео: MPEG4 Video (H264), 720x400, 25fps,1400 Kbps,bit/pixel 0.194
Аудио: AC3 48000Hz, stereo, 192kbps,2 ch


Общее
Уникальный идентификатор : 208987424386411722222574053203264190345 (0x9D39838C80179A2D919BA01121B4B789)
Полное имя : E:\Обратная сторона Луны-2\01 серия_Обратная сторона Луны-2_rip by_Aleksan55.mkv
Формат : Matroska
Версия формата : Version 2
Размер файла : 606 Мбайт
Продолжительность : 53 м.
Общий поток : 1594 Кбит/сек
Дата кодирования : UTC 2016-12-06 03:15:28
Программа кодирования : mkvmerge v7.8.0 ('River Man') 32bit built on Apr 3 2015 12:11:22
Библиотека кодирования : libebml v1.3.1 + libmatroska v1.4.2

Видео
Идентификатор : 1
Формат : AVC
Формат/Информация : Advanced Video Codec
Профиль формата : High@L4.1
Параметр CABAC формата : Да
Параметр ReFrames формата : 14 кадров
Идентификатор кодека : V_MPEG4/ISO/AVC
Продолжительность : 53 м.
Битрейт : 1400 Кбит/сек
Ширина : 720 пикселей
Высота : 400 пикселей
Соотношение сторон : 16:9
Режим частоты кадров : Постоянный
Частота кадров : 25,000 кадров/сек
Цветовое пространство : YUV
Субдискретизация насыщенности : 4:2:0
Битовая глубина : 8 бит
Тип развёртки : Прогрессивная
Бит/(Пиксели*Кадры) : 0.194
Размер потока : 521 Мбайт (86%)
Библиотека кодирования : x264 core 148 r2638 7599210
Настройки программы : cabac=1 / ref=14 / deblock=1:-1:-1 / analyse=0x3:0x133 / me=umh / subme=9 / psy=1 / psy_rd=1.00:0.20 / mixed_ref=0 / me_range=32 / chroma_me=1 / trellis=2 / 8x8dct=1 / cqm=0 / deadzone=21,11 / fast_pskip=0 / chroma_qp_offset=-3 / threads=2 / lookahead_threads=3 / sliced_threads=0 / nr=0 / decimate=0 / interlaced=0 / bluray_compat=0 / constrained_intra=0 / bframes=14 / b_pyramid=2 / b_adapt=1 / b_bias=0 / direct=3 / weightb=1 / open_gop=0 / weightp=2 / keyint=250 / keyint_min=25 / scenecut=40 / intra_refresh=0 / rc_lookahead=60 / rc=2pass / mbtree=1 / bitrate=1400 / ratetol=1.0 / qcomp=0.80 / qpmin=0 / qpmax=40 / qpstep=4 / cplxblur=20.0 / qblur=0.5 / ip_ratio=1.40 / aq=1:1.20
Default : Да
Forced : Нет
Цветовой диапазон : Limited
Основные цвета : BT.601 PAL
Характеристики трансфера : BT.470 System B, BT.470 System G
Коэффициенты матрицы : BT.601

Аудио
Идентификатор : 2
Формат : AC-3
Формат/Информация : Audio Coding 3
Расширение режима : CM (complete main)
Параметр Endianness формата : Big
Идентификатор кодека : A_AC3
Продолжительность : 53 м.
Вид битрейта : Постоянный
Битрейт : 192 Кбит/сек
Каналы : 2 канала
Расположение каналов : Front: L R
Частота : 48,0 КГц
Метод сжатия : С потерями
Размер потока : 73,0 Мбайт (12%)
Default : Да
Forced : Нет
Внимание! Раздача ведётся путём добавления новых серий; при каждом добавлении создаётся новый торрент.
Чтобы начать докачку новой серии, пользователям необходимо сделать следующее:
1. Остановить скачивание;
2. Удалить старый торрент у себя из клиента (старые серии удалять не надо);
3. Скачать новый торрент и запустить его у себя в клиенте вместо старого, при этом указать клиенту путь в старую папку куда и должно происходить скачивание новых серий. Ваш клиент при этом должен произвести хеширование (проверку) старой папки и будет докачивать только те серии, которых у вас ещё нет. Старые серии при этом не удаляются, а продолжают раздаваться! Eсли вы уже удалили старые серии, то предотвратить повторную закачку старых серий можно, отжав галочку в соответствующих местах при запуске нового торрента.


Рекламы нет.Добавлены 7-8 серия.pb.wtf



Скачать Обратная сторона Луны-2 через торрент http://s017.radikal.ru/i420/1612/42/ad8b7053c0fd.png Скачать фильм Обратная сторона Луны-2 через торрент бесплантно в хорошем качестве Описание: Куда на этот раз забросит судьба Михаила Соловьева? Каким временем или параллельной реальностью продюсеры и авторы второго сезона ... 10 10 8
Торрент: Зарегистрирован [2016-12-08 20:35] · скачан: 79 раз
Статус: √ проверено
Размер: 4.56 GB
Как cкачать? Как скачать Обратная сторона Луны-2 через торрент | qTorrent



Последний раз редактировалось: aleksan55 (2016-12-08 20:35), всего редактировалось 2 раз(а)

28-11-2019 20:33  

Отключить всю рекламу на сайте

07-12-2016 10:50 Обратная сторона Луны-2 Скачать торрент  

Давно уже вышел весь сезонpb.wtf



07-12-2016 16:15 Обратная сторона Луны-2 Скачать торрент  

еще в сентябре смотрелpb.wtf



08-12-2016 13:25 Обратная сторона Луны-2 Скачать торрент  

1 сезон класс! этот так себе!pb.wtf



08-12-2016 20:03 Обратная сторона Луны-2 Скачать торрент  

хотелось бы увидеть третий сезон pb.wtf



18-02-2017 11:57 Обратная сторона Луны-2 Скачать торрент  

Первый был получше конечно, но и второй ничего. Второй даже сняли с показа на первом канале, испугались, что народ революцию подымет.pb.wtf



    Дорогой пользователь! Огромная просьба, поблагодарите релизера, оцените раздачу и оставьте свои комментарий, если Вы скачали Обратная сторона Луны-2 через торрент бесплатно! Внесите свою лепту в развитие PiratBit!
    Комментировать посты могут только пользователи прошедшие не сложную регистрацию
    Показать сообщения:    

    Обратная сторона Луны-2 через торрент
    Скачать бесплатно Обратная сторона Луны-2
    Обратная сторона Луны-2 скачать торрент
    Обратная сторона Луны-2 смотреть онлайн
    Cкачать фильм Обратная сторона Луны-2 бесплатно
    Обратная сторона Луны-2 скачать торрент в хорошем качестве
    Обратная сторона Луны-2 смотреть онлайн бесплатно в хорошем качестве


    Вы не можете начинать темы
    Вы не можете отвечать на сообщения
    Вы не можете редактировать свои сообщения
    Вы не можете удалять свои сообщения
    Вы не можете голосовать в опросах
    Вы не можете прикреплять файлы к сообщениям
    Вы можете скачивать файлы