2 сезон

iTunes

1 сезон

1

iTunes

iTunes

iTunes

1 сезон

RePack

30

ИГРА 18+

pack

ВАЖНО

!!Акция!!

Alien_RageХит недели

RePack

MK11
pack

Забери бонус

RePack

jed

!!Акция!!

Alien_Rage

RePack

fifa19

RePack

Assassins Creed: Odyssey

RePack

NEED FOR SPEED™ PAYBACK

4 сезон

9 сезон

Бесстыжие 9 сезон

Все сериалы

все сериалы на PB.wtf

RePack

FAR CRY 5
  

Правила виноделов / The Cider House Rules (Лассе Халльстрём) [1999, драма, мелодрама, BDRip 1080p by msltel] DUB pb.wtf

Правила виноделов через торрент pb.wtf

Размер: 13.64 GB | Добавлен: 3 года 10 мес. назад | Торрент скачан:25 раз
Скачать  

07-12-2016 08:40 Правила виноделов Скачать торрент  

Название: Правила виноделов
Оригинальное название: The Cider House Rules
Год выпуска: 1999
Страна: США
Жанр: драма, мелодрама
Продолжительность: 02:05:24
Перевод: дублированный

Режиссёр: Лассе Халльстрём

В ролях: Тоби Магуайр, Шарлиз Терон, Делрой Линдо, Пол Радд, Майкл Кейн, Джейн Александер (I), Кэти Бэйкер, Эрика Баду, Киран Калкин, Кейт Неллиган, Хэви Ди, К. Тодд Фриман, Пас де ла Уэрта, Дж.К. Симмонс, Эван Парк, Джимми Флинн, Лонни Фармер, Эрик Пер Салливан, Спенсер Даймонд, Шон Эндрю, Джон Альбано, Скай МакКоул Бартусяк, Клер Дэйли, Колин Ирвинг, Энни Корли, Патрик Доннелли, Эди Шектер, Кейси Берри, Мэри Бог, Виктория Станкевич, Кристин Стивенс, Эрл С. Бэтчелдер

Описание: 40-е годы. Где-то далеко идет война, а в сиротском приюте Сент-Клауд, возглавляемом доктором Ларчем, решаются другие человеческие проблемы. Гомер Уэллс вырос в приюте и никогда ещё не покидал его пределов. Зато преуспел в акушерстве, ассистируя доктору Ларчу. Именно здесь Гомер знакомится с Кэнди и её возлюбленным, уезжающим на фронт. С ними он впервые покидает Сент-Клауд, чтобы узнать другую жизнь, о которой пока только мечтал… По одноименному роману Джона Ирвинга.



Качество: BDRip 1080p Сравнение с исходником
Формат: MKV
Видео: MPEG-4 AVC, 12.6 Mбит/с, 1920х816, 23,976 кадра/с
Аудио 1: русский, DTS, 1509 kbps, 6 ch, 48 kHz [дублированный]
Аудио 2: английский, DTS, 1509 kbps, 5 ch, 48 kHz [оригинал]
Субтитры: русские
Имеются неименованные главы/чаптеры.
Общее
Уникальный идентификатор : 218249637900838026793024985497761382361 (0xA43159EEB2A3AF21874B04FF8D9E7FD9)
Полное имя : D:\Video\Правила виноделов.1999.BDRip.1080p by msltel.mkv
Формат : Matroska
Версия формата : Version 4 / Version 2
Размер файла : 13,6 Гбайт
Продолжительность : 2 ч. 5 м.
Общий поток : 15,6 Мбит/сек
Название фильма : Rip by msltel
Дата кодирования : UTC 2016-12-07 02:49:39
Программа кодирования : mkvmerge v8.2.0 ('World of Adventure') 64bit
Библиотека кодирования : libebml v1.3.1 + libmatroska v1.4.2

Видео
Идентификатор : 1
Формат : AVC
Формат/Информация : Advanced Video Codec
Профиль формата : High@L4.1
Параметр CABAC формата : Да
Параметр ReFrames формата : 4 кадра
Идентификатор кодека : V_MPEG4/ISO/AVC
Продолжительность : 2 ч. 5 м.
Битрейт : 12,6 Мбит/сек
Ширина : 1920 пикселей
Высота : 816 пикселей
Соотношение сторон : 2,35:1
Режим частоты кадров : Постоянный
Частота кадров : 23,976 (24000/1001) кадра/сек
Цветовое пространство : YUV
Субдискретизация насыщенности : 4:2:0
Битовая глубина : 8 бит
Тип развёртки : Прогрессивная
Бит/(Пиксели*Кадры) : 0.334
Размер потока : 11,0 Гбайт (81%)
Библиотека кодирования : x264 core 146 r2538 121396c
Настройки программы : cabac=1 / ref=4 / deblock=1:-3:-3 / analyse=0x3:0x113 / me=umh / subme=9 / psy=1 / psy_rd=1.00:0.15 / mixed_ref=1 / me_range=32 / chroma_me=1 / trellis=1 / 8x8dct=1 / cqm=0 / deadzone=21,11 / fast_pskip=0 / chroma_qp_offset=-3 / threads=6 / lookahead_threads=1 / sliced_threads=0 / nr=0 / decimate=1 / interlaced=0 / bluray_compat=0 / constrained_intra=0 / bframes=9 / b_pyramid=2 / b_adapt=2 / b_bias=0 / direct=1 / weightb=0 / open_gop=0 / weightp=2 / keyint=230 / keyint_min=23 / scenecut=40 / intra_refresh=0 / rc_lookahead=40 / rc=crf / mbtree=0 / crf=18.6 / qcomp=0.60 / qpmin=0 / qpmax=69 / qpstep=4 / vbv_maxrate=50000 / vbv_bufsize=62500 / crf_max=0.0 / nal_hrd=none / filler=0 / ip_ratio=1.40 / pb_ratio=1.30 / aq=1:1.00
Язык : English
Default : Да
Forced : Нет

Аудио #1
Идентификатор : 2
Формат : DTS
Формат/Информация : Digital Theater Systems
Режим : 16
Параметр Endianness формата : Big
Идентификатор кодека : A_DTS
Продолжительность : 2 ч. 5 м.
Вид битрейта : Постоянный
Битрейт : 1509 Кбит/сек
Каналы : 6 каналов
Расположение каналов : Front: L C R, Side: L R, LFE
Частота : 48,0 КГц
Частота кадров : 93,750 кадра/сек (512 spf)
Битовая глубина : 16 бит
Метод сжатия : С потерями
Размер потока : 1,32 Гбайт (10%)
Заголовок : DUB
Язык : Russian
Default : Да
Forced : Нет

Аудио #2
Идентификатор : 3
Формат : DTS
Формат/Информация : Digital Theater Systems
Режим : 16
Параметр Endianness формата : Big
Идентификатор кодека : A_DTS
Продолжительность : 2 ч. 5 м.
Вид битрейта : Постоянный
Битрейт : 1509 Кбит/сек
Каналы : 5 каналов
Расположение каналов : Front: L C R, Side: L R
Частота : 48,0 КГц
Частота кадров : 93,750 кадра/сек (512 spf)
Битовая глубина : 24 бит
Метод сжатия : С потерями
Размер потока : 1,32 Гбайт (10%)
Заголовок : original
Язык : English
Default : Нет
Forced : Нет

Текст
Идентификатор : 4
Формат : UTF-8
Идентификатор кодека : S_TEXT/UTF8
Идентификатор кодека/Информация : UTF-8 Plain Text
Продолжительность : 1 ч. 59 м.
Битрейт : 85 бит/сек
Count of elements : 1163
Размер потока : 75,0 Кбайт (0%)
Заголовок : русские
Язык : Russian
Default : Нет
Forced : Нет

Меню
00:00:00.000 : :Chapter 01
00:10:05.605 : :Chapter 02
00:21:04.888 : :Chapter 03
00:31:10.869 : :Chapter 04
00:41:56.889 : :Chapter 05
00:52:03.537 : :Chapter 06
01:03:08.242 : :Chapter 07
01:13:34.243 : :Chapter 08
01:24:38.990 : :Chapter 09
01:34:45.596 : :Chapter 10
01:45:11.596 : :Chapter 11
01:55:37.597 : :Chapter 12
02:05:17.510 : :Chapter 13

ВКОНТАКТЕpb.wtf



Скачать Правила виноделов через торрент http://s61.radikal.ru/i174/1612/da/1e5cd07f31cd.jpg Скачать фильм Правила виноделов через торрент бесплантно в хорошем качестве Описание: 40-е годы. Где-то далеко идет война, а в сиротском приюте Сент-Клауд, возглавляемом доктором Ларчем, решаются другие человеческие ... 10 10 2
Info! Золотая раздача, скачанное не засчитывается.
Торрент: Зарегистрирован [2016-12-07 08:40] · скачан: 25 раз
Статус: √ проверено
Размер: 13.64 GB
Как cкачать? Как скачать Правила виноделов через торрент | qTorrent

% Раздел Тема Автор DL S | L
Фильмы [HD 720p, 1080p] (Хороший звук DUB, MVO) [ 4.51 GB ] Правила виноделов / The Cider House Rules [1999 BDRip 720p by msltel] DUB msltel Скачать
1 | 0

28-11-2019 20:33  

Отключить всю рекламу на сайте

    Дорогой пользователь! Огромная просьба, поблагодарите релизера, оцените раздачу и оставьте свои комментарий, если Вы скачали Правила виноделов через торрент бесплатно! Внесите свою лепту в развитие PiratBit!
    Комментировать посты могут только пользователи прошедшие не сложную регистрацию
    Показать сообщения:    

    Правила виноделов через торрент
    Скачать бесплатно Правила виноделов
    Правила виноделов скачать торрент
    Правила виноделов смотреть онлайн
    Cкачать фильм Правила виноделов бесплатно
    Правила виноделов скачать торрент в хорошем качестве
    Правила виноделов смотреть онлайн бесплатно в хорошем качестве


    Вы не можете начинать темы
    Вы не можете отвечать на сообщения
    Вы не можете редактировать свои сообщения
    Вы не можете удалять свои сообщения
    Вы не можете голосовать в опросах
    Вы не можете прикреплять файлы к сообщениям
    Вы можете скачивать файлы